Uncharted 2: Среди Воров / Uncharted 2: Among Thieves (2009) WEBRip [H.264/720p-LQ]

Ответить на тему
 
Автор Сообщение

BiOS ®

Стаж: 3 года 2 месяца

Сообщений: 1987

Откуда: Raccoon City


Пост 01-Июл-2016 19:40

[Цитировать]

Uncharted 2: Среди Воров / Uncharted 2: Among Thieves - Жанр: Приключения, Игровой фильм
Описание:
Черная полоса в жизни заставила Дрейка вернуться в коварный мир воров и наемных охотников за сокровищами, который он мечтал оставить в прошлом. Таинственный артефакт направил Дрейка на поиски легендарной Шамбалы в сердце Гималаев, но экспедиция превратилась в опасную игру в кошки-мышки с военным преступником, которого влекло нечто большее, чем сокровища затерянного города.
Пойманный в паутину обмана, действуя на пределе своих сил, чтобы выжить в смертельной гонке, Дрейк рискнет всем – но не отвернется ли от него фортуна и на этот раз?
Продолжительность: 01:24:42
Качество видео: WEBRip
Перевод: Дублированный
Видео: AVC/H.264, 1280х720, ~1970 Кбит/сек
Аудио: AAC, 2 ch, 126 Кбит/сек, VBR

Mediainfo:

Код:
Общее
Полное имя : C:\Uncharted 2_ Среди Воров ► ИГРОФИЛЬМ • (PS4) ツ.mp4
Формат : MPEG-4
Профиль формата : Base Media / Version 2
Идентификатор кодека : mp42 (isom/mp42)
Размер файла : 1,24 Гбайт
Продолжительность : 1 ч. 24 м.
Режим общего битрейта : Переменный
Общий поток : 2098 Кбит/сек
Дата кодирования : UTC 2016-06-24 13:21:08
Дата пометки : UTC 2016-06-24 13:21:08
gsst : 0
gstd : 5082639
Видео
Идентификатор : 1
Формат : AVC
Формат/Информация : Advanced Video Codec
Профиль формата : Main@L3.1
Параметр CABAC формата : Да
Параметр ReFrames формата : 3 кадра
Идентификатор кодека : avc1
Идентификатор кодека/Информация : Advanced Video Coding
Продолжительность : 1 ч. 24 м.
Битрейт : 1970 Кбит/сек
Ширина : 1280 пикселей
Высота : 720 пикселей
Соотношение сторон : 16:9
Режим частоты кадров : Постоянный
Частота кадров : 29,970 (30000/1001) кадров/сек
Цветовое пространство : YUV
Субдискретизация насыщенности : 4:2:0
Битовая глубина : 8 бит
Тип развёртки : Прогрессивная
Бит/(Пиксели*Кадры) : 0.071
Размер потока : 1,17 Гбайт (94%)
Заголовок : ISO Media file produced by Google Inc.
Дата кодирования : UTC 2016-06-24 13:21:08
Дата пометки : UTC 2016-06-24 13:21:08
Цветовой диапазон : Limited
Основные цвета : BT.709
Характеристики трансфера : BT.709
Коэффициенты матрицы : BT.709
Аудио
Идентификатор : 2
Формат : AAC
Формат/Информация : Advanced Audio Codec
Профиль формата : LC
Идентификатор кодека : 40
Продолжительность : 1 ч. 24 м.
Продолжительность оригинала : 1 ч. 24 м.
Вид битрейта : Переменный
Битрейт : 126 Кбит/сек
Каналы : 2 канала
Расположение каналов : Front: L R
Частота : 44,1 КГц
Частота кадров : 43,066 кадра/сек (1024 spf)
Метод сжатия : С потерями
Размер потока : 76,1 Мбайт (6%)
Размер потока оригинала : 76,1 Мбайт (6%)
Заголовок : ISO Media file produced by Google Inc.
Дата кодирования : UTC 2016-06-24 13:21:08
Дата пометки : UTC 2016-06-24 13:21:08
-Скриншоты:


[trackeroc.ru].13553.torrent 
 СЕРЕБРЯНАЯ РАЗДАЧА! СКАЧАННОЕ ЗАСЧИТЫВАЕТСЯ ТОЛЬКО НАПОЛОВИНУ! 
Торрент: Зарегистрирован   [ 2017-03-17 05:13 ]

Скачать торрент

13 KB

Статус: проверено
Скачан: 75 раз
Размер: 1.24 GB
 

Admin (17-мар-17)
Похожие торренты
Форум Тема Автор Размер
RPG Oceanhorn: Monster of Uncharted Seas (2015) (v3.4.51.419) (ENG+RUS) GOG Admin 385 MB
Playstation 3 (PS3) - Игры Uncharted: Drake's Fortune / Uncharted: Судьба Дрейка (2007) [PS3] [EUR] 1.94 [Cobra ODE / E3 ODE PRO ISO] [Repack] [Ru/Multi] | R.G.DShock BiOS 20.59 GB
Логические игры, пазлы ,три в ряд Secrets of Olympus 2: Gods among Us / Секреты Олимпа 2. Боги среди нас [P] [RUS / ENG] (2014) HOPE 24 MB
Военные Свой среди чужих, чужой среди своих [1974] DVDRip-AVC BiOS 2.66 GB

_________________
[Профиль] [ЛС]
Показать сообщения:    
Ответить на тему

Текущее время: Сегодня 02:36

Часовой пояс: GMT + 4



Вы не можете начинать темы
Вы не можете отвечать на сообщения
Вы не можете редактировать свои сообщения
Вы не можете удалять свои сообщения
Вы не можете голосовать в опросах
Вы не можете прикреплять файлы к сообщениям
Вы можете скачивать файлы