Уральские пельмени. Все лето в шляпе (2015.11.22) DVB [H.264]

Ответить на тему

Статистика раздачи [Обновить пиров]
Размер:  1.87 GB   |    Зарегистрирован:  1 год   |    Скачан:  3 раза

Полного источника не было: 2 месяца 8 дней

 
 
 
 
Автор Сообщение

BiOS ®

Стаж: 2 года 7 месяцев

Сообщений: 1738

Откуда: Raccoon City


Пост 23-Ноя-2015 00:31

[Цитировать]

Уральские пельмени. Все лето в шляпе - Телекомпания: СТС
Жанр: Юмор
В ролях:
Дмитрий Брекоткин, Сергей Ершов, Сергей Исаев, Сергей Калугин, Вячеслав Мясников, Сергей Нетиевский, Александр Попов, Андрей Рожков, Дмитрий Соколов, Максим Ярица, Юля Михалкова и др.
Описание:
Весёлые парни в мандариновых рубашках не дадут соскучиться и подарят отличное настроение всей семье. У юмора «Уральских пельменей» нет возрастных ограничений, они избегают «шуток ниже пояса» и на их концертах пятилетние дети смеются рядом с 50-ти летними взрослыми. Новое комедийное шоу включает в себя как самостоятельные сценические истории, так и импровизации с залом, а также смешные сценки со звёздами, которые пришли посмотреть на любимую команду и неожиданно для себя оказались на сцене.
Не пропусти новое шоу:
Этой Осенью… они сами себе продлевают лето! Они, завоеватели двух лежаков и одного шезлонга. Бесстрашные разрушители песочных замков. Они сами себе включают "все включено"! Они покупают билет только в один конец, потому что обратно улетают на лебедях из полотенец! После них в отелях увеличивается количество звезд и уменьшается количество номеров! Они отвечают за свой загар… Сами шведы проигрывают им битву у своего стола по утрам!
Продолжительность: 01:08:36
Качество видео: DVB
Видео: AVC, 720x576 (4:3), 25.000 fps, 3 295 Kbps (0.318 bit/pixel)
Аудио: MP2, 48.0 KHz, 2 ch, 256 Kbps, CBR

Mediainfo:

Код:
Формат                                   : MPEG-TS
Размер файла                             : 1,87 Гбайт
Продолжительность                        : 1 ч. 11 м.
Режим общего битрейта                    : Переменный
Общий поток                              : 3739 Кбит/сек
Видео
Идентификатор                            : 1802 (0x70A)
Идентификатор меню                       : 802 (0x322)
Формат                                   : AVC
Формат/Информация                        : Advanced Video Codec
Профиль формата                          : High@L3
Параметр CABAC формата                   : Да
Параметр ReFrames формата                : 3 кадра
Идентификатор кодека                     : 27
Продолжительность                        : 1 ч. 11 м.
Битрейт                                  : 3295 Кбит/сек
Ширина                                   : 720 пикселей
Высота                                   : 576 пикселей
Соотношение сторон                       : 4:3
Частота кадров                           : 25,000 кадров/сек
Стандарт вещания                         : Component
Цветовое пространство                    : YUV
Субдискретизация насыщенности            : 4:2:0
Битовая глубина                          : 8 бит
Тип развёртки                            : Чересстрочная
Порядок развёртки                        : Верхнее поле первое
Бит/(Пиксели*Кадры)                      : 0.318
Размер потока                            : 1,65 Гбайт (88%)
Цветовой диапазон                        : Limited
Основные цвета                           : BT.601 PAL
Характеристики трансфера                 : BT.470 System B, BT.470 System G
Коэффициенты матрицы                     : BT.601
Аудио
Идентификатор                            : 76 (0x4C)
Идентификатор меню                       : 802 (0x322)
Формат                                   : MPEG Audio
Версия формата                           : Version 1
Профиль формата                          : Layer 2
Идентификатор кодека                     : 3
Продолжительность                        : 1 ч. 11 м.
Вид битрейта                             : Постоянный
Битрейт                                  : 256 Кбит/сек
Каналы                                   : 2 канала
Частота                                  : 48,0 КГц
Метод сжатия                             : С потерями
Задержка видео                           : -120 мс.
Размер потока                            : 131 Мбайт (7%)
Язык                                     : English
-Скриншоты:


Смотреть онлайн

[trackeroc.ru].10004.torrent 
Торрент: Зарегистрирован   [ 2015-11-23 00:31 ]

Скачать торрент

19 KB

Статус: проверено
Скачан: 44 раз
Размер: 1.87 GB
 


_________________
[Профиль] [ЛС]
Показать сообщения:    
Ответить на тему

Текущее время: Сегодня 12:47

Часовой пояс: GMT + 4



Вы не можете начинать темы
Вы не можете отвечать на сообщения
Вы не можете редактировать свои сообщения
Вы не можете удалять свои сообщения
Вы не можете голосовать в опросах
Вы не можете прикреплять файлы к сообщениям
Вы можете скачивать файлы