Вьючное животное / Beast of Burden скачать торрент

Ответить на тему

Статистика раздачи [Обновить пиров]
Размер:  1.44 GB   |    Зарегистрирован:  4 месяца 15 дней   |    Скачан:  1 раз

Полного источника не было: 1 месяц 24 дня

 
 
 
 
 
Автор Сообщение

Admin ®

Стаж: 4 года 2 месяца

Сообщений: 6939

Откуда: Скачать торрент


Пост 06-Мар-2018 11:55

[Цитировать]

Вьючное животное / Beast of Burden- Год выхода: 2018
Выпущено: США / Aloe Entertainment
Жанр: боевик, триллер, драма, криминал
Продолжительность: 01:29:41
Перевод: Любительский (многоголосый, закадровый) HDrezka Studio
Субтитры: нет-Режиссер:
Йеспер Гансландт / Jesper Ganslandt-В ролях:
Дэниэл Рэдклифф, Грэйс Гаммер, Пабло Шрайбер, Роберт Уиздом, Cesar Perez, Дэвид Джозеф Мартинес, Марк Смит, Renée Willett, Ashton Tatum, Шон Гловер-О фильме:
У Шона Хаггерти есть всего час, чтобы доставить незаконный груз наркокартеля, убедить киллера и агента из Управления по борьбе с наркотиками, что всё идёт по плану, и убедиться, что его жена выживет. И всё это он должен сделать из кабины своей «Сессны».

Качество: WEB-DLRip [Beast.of.Burden.2018.1080p.WEB-DL.DD5.1.H264-FGT]
Формат: AVI
Видео: 704x288 (2.44:1), 23.976 fps, XviD build 67 ~2089 kbps avg, 0.43 bit/pixel
Аудио: 48 kHz, AC3 Dolby Digital, 2/0 (L,R) ch, ~192 kbps avg
-

Скриншоты

-

MediaInfo

Код:
Общее
Полное имя                               : D:\V`uchnoe_zhivotnoe_2018_WEB-DLRip_MVO_by_Dalemake.avi
Формат                                   : AVI
Формат/Информация                        : Audio Video Interleave
Размер файла                             : 1,44 Гбайт
Продолжительность                        : 1 ч. 29 м.
Общий поток                              : 2291 Кбит/сек
Программа кодирования                    : VirtualDubMod 1.5.10.3 | www.virtualdub-fr.org || (build 2550/release)
Библиотека кодирования                   : VirtualDubMod build 2550/release
Видео
Идентификатор                            : 0
Формат                                   : MPEG-4 Visual
Профиль формата                          : Advanced Simple@L5
Параметр BVOP формата                    : 1
Параметр QPel формата                    : Нет
Параметр GMC формата                     : Без точки перехода
Параметр матрицы формата                 : Выборочная
Идентификатор кодека                     : XVID
Идентификатор кодека/Подсказка           : XviD
Продолжительность                        : 1 ч. 29 м.
Битрейт                                  : 2090 Кбит/сек
Ширина                                   : 704 пикселя
Высота                                   : 288 пикселей
Соотношение сторон                       : 2,40:1
Частота кадров                           : 23,976 кадра/сек
Цветовое пространство                    : YUV
Субдискретизация насыщенности            : 4:2:0
Битовая глубина                          : 8 бит
Тип развёртки                            : Прогрессивная
Метод сжатия                             : С потерями
Бит/(Пиксели*Кадры)                      : 0.430
Размер потока                            : 1,31 Гбайт (91%)
Библиотека кодирования                   : XviD 67
Аудио
Идентификатор                            : 1
Формат                                   : AC-3
Формат/Информация                        : Audio Coding 3
Расширение режима                        : CM (complete main)
Параметр Endianness формата              : Big
Идентификатор кодека                     : 2000
Продолжительность                        : 1 ч. 29 м.
Вид битрейта                             : Постоянный
Битрейт                                  : 192 Кбит/сек
Каналы                                   : 2 канала
Расположение каналов                     : Front: L R
Частота                                  : 48,0 КГц
Битовая глубина                          : 16 бит
Метод сжатия                             : С потерями
Размер потока                            : 123 Мбайт (8%)
Выравнивание                             : Разделение по промежуткам
Продолжительность промежутка             : 42  мс. (1,00 видеокадр)
Время предзагрузки промежутка            : 500  мс.
-


Смотреть онлайн


[trackeroc.ru].24296.torrent 
Торрент: Зарегистрирован   [ 2018-03-06 11:55 ]

Скачать торрент

15 KB

Статус: проверено
Скачан: 10 раз
Размер: 1.44 GB
 



_________________
[Профиль] [ЛС]
Показать сообщения:    
Ответить на тему

Текущее время: Сегодня 21:22

Часовой пояс: GMT + 4



Вы не можете начинать темы
Вы не можете отвечать на сообщения
Вы не можете редактировать свои сообщения
Вы не можете удалять свои сообщения
Вы не можете голосовать в опросах
Вы не можете прикреплять файлы к сообщениям
Вы можете скачивать файлы