В ад и обратно / Hell and Back (2015) DVDRip [H.264]

Ответить на тему

Статистика раздачи [Обновить пиров]
Размер:  919 MB   |    Зарегистрирован:  9 месяцев 7 дней   |    Скачан:  4 раза
Сидов:  43  [  0 KB/s  ]   Личеров:  12  [  0 KB/s  ]   Подробная статистика пиров
   
 
Автор Сообщение

BiOS ®

Стаж: 2 года 7 месяцев

Сообщений: 1733

Откуда: Raccoon City


Пост 26-Фев-2016 11:28

[Цитировать]

В ад и обратно / Hell and Back - Производство: США
Жанр: Для взрослых, Приключения, Комедия
Режиссер: Том Джинас, Росс Шуман
Персонажи: Мила Кунис, Дэнни МакБрайд, Боб Оденкёрк, Ник Свардсон, ТиДжей Миллер, Сьюзен Сарандон, Роб Риггл, Мария Бэмфорд, Лэнс Басс
Описание:
История о двух закадычных друзьях, которые должны спасти третьего участника их сплоченного коллектива после того, как тот по ошибке попал прямиком в Ад.
Дата мировой премьеры: 2 октября 2015
Рейтинг MPAA : R, Лицам до 17 лет обязательно присутствие взрослого

Продолжительность: 01:25:57
Качество видео: DVDRip
Перевод: Двуголосый закадровый, любительский
Озвучка / Автор перевода: SinisterSound
Субтитры: Отсутствуют
Видео: AVC/H.264, 720х406, ~1 209 Kbps
Аудио: AC3, 2 ch, 256 Kbps, CBR
Семпл: Скачать

Mediainfo:

Код:
Общее
Уникальный идентификатор                 : 219959384910155132262811015143631529658 (0xA57AA2F7DF9150849601CCC52D76A6BA)
Полное имя                               : C:\V.Ad.I.Obratno.RU.mkv
Формат                                   : Matroska
Версия формата                           : Version 4 / Version 2
Размер файла                             : 919 Мбайт
Продолжительность                        : 1 ч. 25 м.
Общий поток                              : 1494 Кбит/сек
Дата кодирования                         : UTC 2016-02-12 21:20:03
Программа кодирования                    : mkvmerge v8.6.1 ('Flying') 64bit
Библиотека кодирования                   : libebml v1.3.3 + libmatroska v1.4.4
DURATION                                 : 01:25:57.248000000
NUMBER_OF_FRAMES                         : 161164
NUMBER_OF_BYTES                          : 165031936
_STATISTICS_WRITING_APP                  : mkvmerge v8.6.1 ('Flying') 64bit
_STATISTICS_WRITING_DATE_UTC             : 2016-02-12 21:20:03
_STATISTICS_TAGS                         : BPS DURATION NUMBER_OF_FRAMES NUMBER_OF_BYTES
Видео
Идентификатор                            : 1
Формат                                   : AVC
Формат/Информация                        : Advanced Video Codec
Профиль формата                          : High@L3.1
Параметр CABAC формата                   : Да
Параметр ReFrames формата                : 5 кадров
Идентификатор кодека                     : V_MPEG4/ISO/AVC
Продолжительность                        : 1 ч. 25 м.
Битрейт                                  : 1209 Кбит/сек
Ширина                                   : 720 пикселей
Высота                                   : 406 пикселей
Соотношение сторон                       : 16:9
Режим частоты кадров                     : Постоянный
Частота кадров                           : 23,976 кадра/сек
Цветовое пространство                    : YUV
Субдискретизация насыщенности            : 4:2:0
Битовая глубина                          : 8 бит
Тип развёртки                            : Прогрессивная
Бит/(Пиксели*Кадры)                      : 0.172
Размер потока                            : 743 Мбайт (81%)
Библиотека кодирования                   : x264 core 148 r2638 7599210
Настройки программы                      : cabac=1 / ref=5 / deblock=1:-2:-2 / analyse=0x3:0x113 / me=umh / subme=8 / psy=1 / psy_rd=1.00:0.00 / mixed_ref=1 / me_range=16 / chroma_me=1 / trellis=1 / 8x8dct=1 / cqm=0 / deadzone=21,11 / fast_pskip=1 / chroma_qp_offset=-2 / threads=13 / lookahead_threads=2 / sliced_threads=0 / nr=0 / decimate=1 / interlaced=0 / bluray_compat=0 / constrained_intra=0 / bframes=3 / b_pyramid=2 / b_adapt=2 / b_bias=0 / direct=3 / weightb=1 / open_gop=0 / weightp=2 / keyint=240 / keyint_min=24 / scenecut=40 / intra_refresh=0 / rc_lookahead=50 / rc=crf / mbtree=1 / crf=19.0 / qcomp=0.60 / qpmin=0 / qpmax=69 / qpstep=4 / ip_ratio=1.40 / aq=1:0.70
Язык                                     : English
Default                                  : Да
Forced                                   : Нет
DURATION                                 : 01:25:57.152000000
NUMBER_OF_FRAMES                         : 123648
NUMBER_OF_BYTES                          : 797285545
_STATISTICS_WRITING_APP                  : mkvmerge v8.6.1 ('Flying') 64bit
_STATISTICS_WRITING_DATE_UTC             : 2016-02-12 21:20:03
_STATISTICS_TAGS                         : BPS DURATION NUMBER_OF_FRAMES NUMBER_OF_BYTES
Аудио
Идентификатор                            : 2
Формат                                   : AC-3
Формат/Информация                        : Audio Coding 3
Расширение режима                        : CM (complete main)
Параметр Endianness формата              : Big
Идентификатор кодека                     : A_AC3
Продолжительность                        : 1 ч. 25 м.
Вид битрейта                             : Постоянный
Битрейт                                  : 256 Кбит/сек
Каналы                                   : 2 канала
Расположение каналов                     : Front: L R
Частота                                  : 48,0 КГц
Битовая глубина                          : 16 бит
Метод сжатия                             : С потерями
Размер потока                            : 157 Мбайт (17%)
Default                                  : Да
Forced                                   : Нет
-Скриншоты:


Смотреть онлайн

[trackerock.ru].11783.torrent 
Торрент: Зарегистрирован   [ 2016-02-26 11:28 ]

Скачать торрент

19 KB

Статус: проверено
Скачан: 18 раз
Размер: 919 MB
 

Admin (26-фев-16)

_________________
[Профиль] [ЛС]
Показать сообщения:    
Ответить на тему

Текущее время: Сегодня 06:21

Часовой пояс: GMT + 4



Вы не можете начинать темы
Вы не можете отвечать на сообщения
Вы не можете редактировать свои сообщения
Вы не можете удалять свои сообщения
Вы не можете голосовать в опросах
Вы не можете прикреплять файлы к сообщениям
Вы можете скачивать файлы