В лесах Сибири / Dans les forets de Siberie (2016) HDRip скачать торрент

Ответить на тему

Статистика раздачи [Обновить пиров]
Размер:  1.46 GB   |    Зарегистрирован:  7 месяцев 5 дней   |    Скачан:  3 раза

Полного источника не было: 1 месяц 29 дней

 
   
 
 
 
Автор Сообщение

BiOS ®

Стаж: 3 года 7 месяцев

Сообщений: 2028

Откуда: Raccoon City


Пост 17-Апр-2017 01:10

[Цитировать]

В лесах Сибири / Dans les forets de Siberie - Производство: Франция
Жанр: Приключения
Режиссер: Сэфи Неббу
Актеры: Рафаэль Персонас, Евгений Сидихин
Описание:
В поисках самого себя Тедди сбегает от надоевшей суеты европейской жизни и решает воссоединиться с природой, отправившись в разгар зимы в маленькую хижину недалеко от озера Байкал. Однажды вечером, заблудившись в снежной буре, он понимает, что вот-вот расстанется с жизнью. Но неожиданно его спасает Алексей, русский парень, много лет скрывающийся в лесах из-за совершенного им преступления…
Продолжительность: 01:45:08
Качество видео: HDRip
Перевод: Многоголосый закадровый, профессиональный (iTunes)
Субтитры: Французкие на русскую речь (вшитые)
Реклама: отсутствует.
Видео: Xvid, 720x384, ~1708 Kbps
Аудио: AC3, 6 ch, 384 Kbps

Mediainfo:

Формат                                   : AVI
Формат/Информация : Audio Video Interleave
Размер файла : 1,46 Гбайт
Продолжительность : 1 ч. 39 м.
Общий поток : 2101 Кбит/сек
Программа кодирования : VirtualDubMod 1.5.10.3 | www.virtualdub-fr.org || (build 2550/release)
Библиотека кодирования : VirtualDubMod build 2550/release
Видео
Идентификатор : 0
Формат : MPEG-4 Visual
Профиль формата : Advanced Simple@L5
Параметр BVOP формата : 2
Параметр QPel формата : Нет
Параметр GMC формата : Без точки перехода
Параметр матрицы формата : Default (MPEG)
Идентификатор кодека : XVID
Идентификатор кодека/Подсказка : XviD
Продолжительность : 1 ч. 39 м.
Битрейт : 1708 Кбит/сек
Ширина : 720 пикселей
Высота : 384 пикселя
Соотношение сторон : 1,85:1
Частота кадров : 24,000 кадра/сек
Цветовое пространство : YUV
Субдискретизация насыщенности : 4:2:0
Битовая глубина : 8 бит
Тип развёртки : Прогрессивная
Метод сжатия : С потерями
Бит/(Пиксели*Кадры) : 0.257
Размер потока : 1,18 Гбайт (81%)
Библиотека кодирования : XviD 1.2.1 (UTC 2008-12-04)
Аудио
Идентификатор : 1
Формат : AC-3
Формат/Информация : Audio Coding 3
Параметр Endianness формата : Big
Идентификатор кодека : 2000
Продолжительность : 1 ч. 39 м.
Вид битрейта : Постоянный
Битрейт : 384 Кбит/сек
Каналы : 6 каналов
Расположение каналов : Front: L C R, Side: L R, LFE
Частота : 48,0 КГц
Частота кадров : 31,250 кадров/сек (1536 spf)
Битовая глубина : 16 бит
Метод сжатия : С потерями
Размер потока : 272 Мбайт (18%)
Выравнивание : Разделение по промежуткам
Продолжительность промежутка : 42 мс. (1,00 видеокадр)
Время предзагрузки промежутка : 500 мс.
ServiceKind/String : Complete Main
-Скриншоты:


Смотреть онлайн


[trackeroc.ru].19784.torrent 
Торрент: Зарегистрирован   [ 2017-04-17 01:10 ]

Скачать торрент

15 KB

Статус: проверено
Скачан: 45 раз
Размер: 1.46 GB
 

Trialgin (17-апр-17)

_________________
[Профиль] [ЛС]
Показать сообщения:    
Ответить на тему

Текущее время: Сегодня 11:22

Часовой пояс: GMT + 4



Вы не можете начинать темы
Вы не можете отвечать на сообщения
Вы не можете редактировать свои сообщения
Вы не можете удалять свои сообщения
Вы не можете голосовать в опросах
Вы не можете прикреплять файлы к сообщениям
Вы можете скачивать файлы