Великий тигр / The Tiger / Daeho (2015) HDRip

Ответить на тему

Статистика раздачи [Обновить пиров]
Размер:  1.46 GB   |    Зарегистрирован:  8 месяцев 25 дней   |    Скачан:  4 раза

Полного источника не было: 1 день

 
 
 
 
Автор Сообщение

BiOS ®

Стаж: 2 года 7 месяцев

Сообщений: 1733

Откуда: Raccoon City


Пост 10-Мар-2016 14:47

[Цитировать]

Великий тигр / The Tiger / Daeho - Производство: Южная Корея / Next Entertainment World
Жанр: Боевик, Триллер, Приключения
Режиссер: Пак Хун Чжон
Актеры: Чхве Мин Сик, Чон Ман Сик, Хон-Фа Ким, Ким Сан Хо, Юнь Ву Ли, Ра Ми Ран, Хьюн Сын-мин, Ю-Бин Сун, Рен Осуги
Описание:
1925 год, времена японской оккупации в Корее. Любитель тигриных шкур, японский военный министр, приказывает схватить свирепого "Короля всех тигров Кореи". Понимая всю опасность задания, охотники обращаются к бывшему товарищу, некогда величайшему охотнику страны. Тот отказывается помочь, однако его сын, после ссоры с отцом, вступает в ряды охотников...
Дата мировой премьеры: 16 декабря 2015
Продолжительность: 02:19:54
Качество видео: HDRip
Перевод: Двуголосый закадровый, любительский (den904&DeadSno)
Субтитры: Отсутствуют
Видео: Xvid, 720x304, ~1286 Kbps
Аудио: AC3, 2 ch, 192 Kbps, CBR - Русский

Mediainfo:

Код:
Общее
Полное имя                               : The.Tiger.2015.L2.HDRip.avi
Формат                                   : AVI
Формат/Информация                        : Audio Video Interleave
Размер файла                             : 1,46 Гбайт
Продолжительность                        : 2 ч. 19 м.
Общий поток                              : 1490 Кбит/сек
Программа кодирования                    : VirtualDubMod 1.5.10.3 | www.virtualdub-fr.org || (build 2550/release)
Библиотека кодирования                   : VirtualDubMod build 2550/release
Видео
Идентификатор                            : 0
Формат                                   : MPEG-4 Visual
Профиль формата                          : Advanced Simple@L5
Параметр BVOP формата                    : 1
Параметр QPel формата                    : Нет
Параметр GMC формата                     : Без точки перехода
Параметр матрицы формата                 : Default (H.263)
Идентификатор кодека                     : XVID
Идентификатор кодека/Подсказка           : XviD
Продолжительность                        : 2 ч. 19 м.
Битрейт                                  : 1286 Кбит/сек
Ширина                                   : 720 пикселей
Высота                                   : 304 пикселя
Соотношение сторон                       : 2,35:1
Частота кадров                           : 30,000 кадров/сек
Цветовое пространство                    : YUV
Субдискретизация насыщенности            : 4:2:0
Битовая глубина                          : 8 бит
Тип развёртки                            : Прогрессивная
Метод сжатия                             : С потерями
Бит/(Пиксели*Кадры)                      : 0.196
Размер потока                            : 1,26 Гбайт (86%)
Библиотека кодирования                   : XviD 1.2.1 (UTC 2008-12-04)
Аудио
Идентификатор                            : 1
Формат                                   : AC-3
Формат/Информация                        : Audio Coding 3
Расширение режима                        : CM (complete main)
Параметр Endianness формата              : Big
Идентификатор кодека                     : 2000
Продолжительность                        : 2 ч. 19 м.
Вид битрейта                             : Постоянный
Битрейт                                  : 192 Кбит/сек
Каналы                                   : 2 канала
Расположение каналов                     : Front: L R
Частота                                  : 48,0 КГц
Частота кадров                           : 31,250 кадров/сек (1536 spf)
Метод сжатия                             : С потерями
Размер потока                            : 192 Мбайт (13%)
Выравнивание                             : Разделение по промежуткам
Продолжительность промежутка             : 33  мс. (1,00 видеокадр)
Время предзагрузки промежутка            : 500  мс.
-Скриншоты:


Смотреть онлайн

[trackerock.ru].12052.torrent 
Торрент: Зарегистрирован   [ 2016-03-10 14:48 ]

Скачать торрент

15 KB

Статус: проверено
Скачан: 21 раз
Размер: 1.46 GB
 

Admin (10-мар-16)
Похожие торренты
Форум Тема Автор Размер
Фантастика Фэнтези Крадущийся тигр, затаившийся дракон: Меч судьбы / Crouching Tiger, Hidden Dragon: Sword of Destiny (2016) WEBRip Admin 1.46 GB

_________________
[Профиль] [ЛС]
Показать сообщения:    
Ответить на тему

Текущее время: Сегодня 12:19

Часовой пояс: GMT + 4



Вы не можете начинать темы
Вы не можете отвечать на сообщения
Вы не можете редактировать свои сообщения
Вы не можете удалять свои сообщения
Вы не можете голосовать в опросах
Вы не можете прикреплять файлы к сообщениям
Вы можете скачивать файлы