Великолепная афера / Matchstick Men (Ридли Скотт / Ridley Scott) [2003, Триллер, комедия, драма, криминал, BDRip]

Ответить на тему

Статистика раздачи [Обновить пиров]
Размер:  2.19 GB   |    Зарегистрирован:  1 год 1 месяц   |    Скачан:  3 раза
Сидов:  59  [  0 KB/s  ]   Личеров:  35  [  0 KB/s  ]   Подробная статистика пиров
   
 
Автор Сообщение

Матвей ®

Стаж: 1 год 2 месяца

Сообщений: 236

Откуда: Челябинск


Пост 18-Окт-2015 11:27

[Цитировать]

Великолепная афера / Matchstick Men--- Производство: США / Warner Bros. Pictures, ImageMovers
Жанр: Триллер, комедия, драма, криминал
Режиссер: Ридли Скотт
Актеры: Николас Кейдж, Сэм Рокуэлл, Элисон Ломан, Брюс Олтмен, Брюс МакГилл, Дженни О’Хара, Стив Истин, Бет Грант
Описание:
Опытный мошенник Рой и его амбициозный протеже Фрэнк занимаются мелким надувательством в сфере торговли. Их фокусы приносят от нескольких сот до нескольких тысяч баксов, что, в конечном счете, делает их партнерство прибыльным. Однако, если с «работой» у Роя все в порядке, то личная жизнь полна проблем: он одинок, помешан на чистоте, и ко всему прочему не совсем психически здоров. На курсах психотерапии, на которые его заставил пойти Фрэнк, совершенно неожиданно Рой узнает о существовании дочери по имени Анжела.
Сначала появление дочки нарушает тщательно спланированный образ жизни ее отца, но вскоре Рой осознает все радости общения с близким человеком...

http://www.kinopoisk.ru/film/1952/
http://www.imdb.com/title/tt0325805/
SAMPLE
Релиз от: ivandubskoj
Продолжительность: 01:56:08
Качество видео: BDRip
Перевод: Дублированный (Мосфильм-Мастер), 2 x профессиональный многоголосый
Субтитры Отсутствуют
Видео: XviD, 720x304 (2.35:1), 1724 Кбит/с, 23,976 кадр/с
Аудио #1: Русский, Dolby AC3, 48000 Гц, 384 Кбит/с, 6 каналов (5.1) - DUB [Мосфильм-Мастер]
Аудио #2: Русский, Dolby AC3, 48000 Гц, 384 Кбит/с, 6 каналов (5.1) - MVO #1
Аудио #3: Русский, Dolby AC3, 48000 Гц, 192 Кбит/с, 2 канала (Стерео) - MVO #2

Mediainfo

Код:
General
Complete name : Matchstick.Men.2003.Triple.BDRip.avi
Format : AVI
Format/Info : Audio Video Interleave
Format profile : OpenDML
File size : 2.19 GiB
Duration : 1h 56mn
Overall bit rate : 2 701 Kbps
Writing application : VirtualDubMod 1.5.10.3 | [url=http://www.virtualdub-fr.org]www.virtualdub-fr.org[/url] || (build 2550/release)
Writing library : VirtualDubMod build 2550/release
Copyright : rip by ivandubskoj
Video
ID : 0
Format : MPEG-4 Visual
Format profile : Advanced Simple@L5
Format settings, BVOP : 1
Format settings, QPel : No
Format settings, GMC : No warppoints
Format settings, Matrix : Custom
Codec ID : XVID
Codec ID/Hint : XviD
Duration : 1h 56mn
Bit rate : 1 724 Kbps
Width : 720 pixels
Height : 304 pixels
Display aspect ratio : 2.35:1
Frame rate : 23.976 fps
Color space : YUV
Chroma subsampling : 4:2:0
Bit depth : 8 bits
Scan type : Progressive
Compression mode : Lossy
Bits/(Pixel*Frame) : 0.328
Stream size : 1.40 GiB (64%)
Writing library : XviD 73
Audio #1
ID : 1
Format : AC-3
Format/Info : Audio Coding 3
Mode extension : CM (complete main)
Codec ID : 2000
Duration : 1h 56mn
Bit rate mode : Constant
Bit rate : 384 Kbps
Channel(s) : 6 channels
Channel positions : Front: L C R, Side: L R, LFE
Sampling rate : 48.0 KHz
Bit depth : 16 bits
Compression mode : Lossy
Stream size : 319 MiB (14%)
Alignment : Split accross interleaves
Interleave, duration : 64 ms (1.53 video frames)
Interleave, preload duration : 500 ms
Audio #2
ID : 2
Format : AC-3
Format/Info : Audio Coding 3
Mode extension : CM (complete main)
Codec ID : 2000
Duration : 1h 56mn
Bit rate mode : Constant
Bit rate : 384 Kbps
Channel(s) : 6 channels
Channel positions : Front: L C R, Side: L R, LFE
Sampling rate : 48.0 KHz
Bit depth : 16 bits
Compression mode : Lossy
Stream size : 319 MiB (14%)
Alignment : Split accross interleaves
Interleave, duration : 64 ms (1.53 video frames)
Interleave, preload duration : 500 ms
Audio #3
ID : 3
Format : AC-3
Format/Info : Audio Coding 3
Mode extension : CM (complete main)
Codec ID : 2000
Duration : 1h 56mn
Bit rate mode : Constant
Bit rate : 192 Kbps
Channel(s) : 2 channels
Channel positions : Front: L R
Sampling rate : 48.0 KHz
Bit depth : 16 bits
Compression mode : Lossy
Delay relative to video : 1s 200ms
Stream size : 159 MiB (7%)
Alignment : Split accross interleaves
Interleave, duration : 64 ms (1.54 video frames)
Interleave, preload duration : 500 ms

Скриншоты:



Смотреть онлайн

[trackeroc.ru].8905.torrent 
Торрент: Зарегистрирован   [ 2015-10-18 11:27 ]

Скачать торрент

12 KB

Статус: проверено
Скачан: 11 раз
Размер: 2.19 GB
 

Admin (18-окт-15)
Похожие торренты
Форум Тема Автор Размер
Боевики Великолепная семерка / The Magnificent Seven (2016) TS BiOS 2.05 GB
Комедии Лунная афера / Moonwalkers (2015) WEB-DLRip Admin 2.89 GB

_________________

[Профиль] [ЛС]
Показать сообщения:    
Ответить на тему

Текущее время: Сегодня 14:02

Часовой пояс: GMT + 4



Вы не можете начинать темы
Вы не можете отвечать на сообщения
Вы не можете редактировать свои сообщения
Вы не можете удалять свои сообщения
Вы не можете голосовать в опросах
Вы не можете прикреплять файлы к сообщениям
Вы можете скачивать файлы