Видеть / See (2019) WEBRip (сезон 1, серии 1-8 из 8) HDRezka Studio скачать торрент

Reply to topic

DL-List and Torrent activity [Update пиров]
Size:  13.2 GB   |    Registered:  1 month 18 days   |    Completed:  0 times
Seeders:  11  [  2 MB/s  ]   Show peers in full details
 
 
 
 
Author Message

BiOS ®

Longevity: 5 years 9 months

Posts: 2407

Location: Earth


Post 08-Dec-2019 00:32

[Quote]

ВИДЕТЬ / SEE - Производство: США / Chernin Entertainment, Endeavor Content
Жанр: фантастика, боевик, драма
Режиссер: Френсис Лоуренс, Андерс Энгстрем, Стивен Серджик
Актеры: Элфри Вудард, Джейсон Момоа, Сильвия Хукс, Кристиан Камарго, Арчи Мадекве, Неста Купер, Ядира Гевара-Прип, Джош Блэкер, Кристиан Слоун и др.
Описание:
В далёком будущем человеческая раса полностью лишилась зрения. Чтобы выжить, людям пришлось найти новый способ сосуществовать, строить и добывать пищу. Всё меняется, когда в семье бесстрашного воина Бабы Восса рождаются зрячие близнецы. Их появление рискует нарушить хрупкий баланс нового мира и ввергнуть успокоившуюся цивилизацию в хаос.

Дата мировой премьеры: 1 ноября 2019
Продолжительность: ~00:55:00 серия
Качество видео: WEBRip
Перевод: Многоголосый профессиональный, закадровый - HDRezka Studio
Видео: AVC/H.264, 1280x608, ~4875 Kbps
Аудио #1: AC3, 2 ch, 192 Kbps - русский

MediaInfo:

Общее
Уникальный идентификатор : 44597176263448734162978859565234594752 (0x218D1A8D6656DEAE83700B24F2D523C0)
Полное имя : See.s01.e01.WEB-DL 720p.HDRezka.mkv
Формат : Matroska
Версия формата : Version 4
Размер файла : 2,08 Гбайт
Продолжительность : 57 м. 40 с.
Режим общего битрейта : Переменный
Общий поток : 5172 Кбит/сек
Программа кодирования : Lavf58.20.100
Библиотека кодирования : Lavf58.20.100
ErrorDetectionType : Per level 1
Видео
Идентификатор : 1
Формат : AVC
Формат/Информация : Advanced Video Codec
Профиль формата : High@L4.1
Настройки формата : CABAC / 1 Ref Frames
Параметр CABAC формата : Да
Параметр RefFrames формата : 1 кадр
Идентификатор кодека : V_MPEG4/ISO/AVC
Продолжительность : 57 м. 40 с.
Вид битрейта : Переменный
Битрейт : 4877 Кбит/сек
Максимальный битрейт : 2000 Кбит/сек
Ширина : 1280 пикселей
Высота : 608 пикселей
Соотношение сторон : 2,105
Режим частоты кадров : Постоянный
Частота кадров : 23,976 (24000/1001) кадра/сек
Цветовое пространство : YUV
Субдискретизация насыщенности : 4:2:0
Битовая глубина : 8 бит
Тип развёртки : Прогрессивная
Бит/(Пиксели*Кадры) : 0.261
Размер потока : 1,96 Гбайт (94%)
Default : Да
Forced : Нет
Аудио
Идентификатор : 2
Формат : AC-3
Формат/Информация : Audio Coding 3
Коммерческое название : Dolby Digital
Идентификатор кодека : A_AC3
Продолжительность : 57 м. 40 с.
Вид битрейта : Постоянный
Битрейт : 192 Кбит/сек
Каналы : 2 канала
ChannelLayout : L R
Частота : 48,0 КГц
Частота кадров : 31,250 кадров/сек (1536 SPF)
Метод сжатия : С потерями
Размер потока : 79,2 Мбайт (4%)
Язык : Russian
ServiceKind/String : Complete Main
Default : Да
Forced : Нет
-Скриншоты:


Смотреть онлайн


[trackeroc.org].29634.torrent 
Torrent: Registered   [ 2019-12-08 02:38 ]

Скачать торрент

67 KB

Status: checked
Completed: 12 times
Size: 13.2 GB
 

Admin (08-дек-19)

_________________
[Profile] [PM]
Display posts from previous:    
Reply to topic

The time now is: Today 22:20

All times are GMT + 4 Hours



You cannot post new topics in this forum
You cannot reply to topics in this forum
You cannot edit your posts in this forum
You cannot delete your posts in this forum
You cannot vote in polls in this forum
You cannot attach files in this forum
You can download files in this forum