Викинг (2016) CamRip

Ответить на тему

Статистика раздачи [Обновить пиров]
Размер:  1.37 GB   |    Зарегистрирован:  6 дней   |    Скачан:  2 раза
Сидов:  128  [  185 KB/s  ]   Личеров:  7  [  0 KB/s  ]   Подробная статистика пиров
   
 
Автор Сообщение

BiOS ®

Стаж: 2 года 8 месяцев

Сообщений: 1817

Откуда: Raccoon City


Пост 10-Янв-2017 14:42

[Цитировать]

Викинг
«Тебе нужно увидеть, чтобы поверить»
- Производство: Россия, Дирекция Кино
Жанр: Драма, история
Режиссер: Андрей Кравчук
Актеры: Данила Козловский, Светлана Ходченкова, Максим Суханов, Игорь Петренко, Андрей Смоляков, Владимир Епифанцев, Александра Бортич, Кирилл Плетнёв, Александр Устюгов, Ростислав Бершауэр
Описание:
Раннее Средневековье. Время тяжелых мечей и темных законов крови. Правящий род в раздоре. Вина за случайную смерть брата легла на Великого Князя. По закону мстить ему должен младший брат — бастард. За отказ убивать он заплатит всем, что у него было, потому что «для мира нужно больше мечей, чем для войны»…
Возраст: 18+ (зрителям, достигшим 18 лет. запрещено для детей)
Дата мировой премьеры: 6 января 2017
Дата российской премьеры: 29 декабря 2016, «Централ Партнершип»
Продолжительность: 02:05:14
Качество видео: CamRip
Перевод: Не требуется (русский)
Субтитры: Отсутствуют
Реклама: Присутствуют голосовые и текстовые вставки рекламы.
Видео: Xvid, 720x336, ~1950 Кбит/сек
Аудио: AC3, 2 ch, 384 Кбит/сек

Mediainfo:

Код:
Общее
Формат                                   : AVI
Формат/Информация                        : Audio Video Interleave
Профиль формата                          : OpenDML
Размер файла                             : 2,05 Гбайт
Продолжительность                        : 2 ч. 5 м.
Общий поток                              : 2347 Кбит/сек
Программа кодирования                    : VirtualDubMod 1.5.10.2 (build 2540/release)
Библиотека кодирования                   : VirtualDubMod build 2540/release
Видео
Идентификатор                            : 0
Формат                                   : MPEG-4 Visual
Профиль формата                          : Advanced Simple@L5
Параметр BVOP формата                    : 2
Параметр QPel формата                    : Нет
Параметр GMC формата                     : Без точки перехода
Параметр матрицы формата                 : Выборочная
Идентификатор кодека                     : XVID
Идентификатор кодека/Подсказка           : XviD
Продолжительность                        : 2 ч. 5 м.
Битрейт                                  : 1950 Кбит/сек
Ширина                                   : 720 пикселей
Высота                                   : 336 пикселей
Соотношение сторон                       : 2,143
Частота кадров                           : 25,000 кадров/сек
Цветовое пространство                    : YUV
Субдискретизация насыщенности            : 4:2:0
Битовая глубина                          : 8 бит
Тип развёртки                            : Прогрессивная
Метод сжатия                             : С потерями
Бит/(Пиксели*Кадры)                      : 0.322
Размер потока                            : 1,71 Гбайт (83%)
Библиотека кодирования                   : XviD 1.2.1 (UTC 2008-12-04)
Аудио
Идентификатор                            : 1
Формат                                   : AC-3
Формат/Информация                        : Audio Coding 3
Расширение режима                        : CM (complete main)
Параметр Endianness формата              : Big
Идентификатор кодека                     : 2000
Продолжительность                        : 2 ч. 5 м.
Вид битрейта                             : Постоянный
Битрейт                                  : 384 Кбит/сек
Каналы                                   : 2 канала
Расположение каналов                     : Front: L R
Частота                                  : 48,0 КГц
Частота кадров                           : 31,250 кадров/сек (1536 spf)
Метод сжатия                             : С потерями
Размер потока                            : 344 Мбайт (16%)
Выравнивание                             : Разделение по промежуткам
Продолжительность промежутка             : 40  мс. (1,00 видеокадр)
Время предзагрузки промежутка            : 500  мс.

Обзор фильма от Гоблина:


-Скриншоты:


Смотреть онлайн

[trackeroc.ru].17774.torrent 
Торрент: Зарегистрирован   [ 2017-01-10 14:42 ]

Скачать торрент

14 KB

Статус: T временная
Скачан: 53 раз
Размер: 1.37 GB
 

Admin (10-янв-17)
Похожие торренты
Форум Тема Автор Размер
RPG ролевые игры Boundel [MMORPG + LAN] v1.0c (2016) - Steam Rip by McAule McAule 891 MB
RPG ролевые игры Darkest Dungeon [Build 16708] (2016) (RUS|ENG) Admin 1.56 GB
Strategy Стратегии Zombie Night Terror [v1.1.10] [RUS/ENG] (2016) Admin 488 MB
Песочницы , Sandbox Force of Nature [RU/EN] (2016) v1.0.12 McAule 123 MB
Приключенческие игры Adventure Ghost of a Tale [v2.81] [Early Access] [ENG] (2016) Admin 1.22 GB

_________________
[Профиль] [ЛС]
Показать сообщения:    
Ответить на тему

Текущее время: Сегодня 01:46

Часовой пояс: GMT + 4



Вы не можете начинать темы
Вы не можете отвечать на сообщения
Вы не можете редактировать свои сообщения
Вы не можете удалять свои сообщения
Вы не можете голосовать в опросах
Вы не можете прикреплять файлы к сообщениям
Вы можете скачивать файлы