Вилы / Pitchfork (2016) WEB-DLRip

Ответить на тему

Статистика раздачи [Обновить пиров]
Размер:  1.37 GB   |    Зарегистрирован:  2 месяца 17 дней   |    Скачан:  2 раза

Полного источника не было: 1 месяц 28 дней

 
   
 
 
 
Автор Сообщение

Admin ®

Стаж: 2 года 11 месяцев

Сообщений: 4703

Откуда: 39 регион


Пост 09-Янв-2017 23:02

[Цитировать]

Вилы / Pitchfork
«Every Generation Has Its Monster»
- Производство: США
Жанр: Ужасы
Режиссер: Гленн Дуглас Паккард
Актеры: Дэниэл Уилкинсон, Brian Raetz, Lindsey Nicole, Райан Мур, Селина Бич, Nicole Dambro, Keith Webb, Sheila Leason, Vibhu Raghave, Рэйчел Картер
Описание:
Компания друзей приезжает в дом одного из них, чтобы помочь ему разгадать одну тайну. Только иногда старые тайны могут оказаться смертельно опасными.
Дата мировой премьеры: 23 сентября 2016
Продолжительность: 01:34:59
Качество видео: WEB-DLRip
Перевод: Многоголосый закадровый, любительский (MUZOBOZ)
Реклама: Присутствуют аудио и видео вставки рекламы
Видео: Xvid, 720x304, ~ 1667 kbps
Аудио: AC3, 2 ch, 384 kbps - русский

Mediainfo:

Код:
Общее
Формат                                   : AVI
Формат/Информация                        : Audio Video Interleave
Размер файла                             : 1,37 Гбайт
Продолжительность                        : 1 ч. 34 м.
Общий поток                              : 2060 Кбит/сек
Программа кодирования                    : VirtualDubMod 1.5.10.2 (build 2540/release)
Библиотека кодирования                   : VirtualDubMod build 2540/release
Видео
Идентификатор                            : 0
Формат                                   : MPEG-4 Visual
Профиль формата                          : Advanced Simple@L5
Параметр BVOP формата                    : 2
Параметр QPel формата                    : Нет
Параметр GMC формата                     : Без точки перехода
Параметр матрицы формата                 : Default (MPEG)
Идентификатор кодека                     : XVID
Идентификатор кодека/Подсказка           : XviD
Продолжительность                        : 1 ч. 34 м.
Битрейт                                  : 1667 Кбит/сек
Ширина                                   : 720 пикселей
Высота                                   : 304 пикселя
Соотношение сторон                       : 2,35:1
Частота кадров                           : 23,976 (24000/1001) кадра/сек
Цветовое пространство                    : YUV
Субдискретизация насыщенности            : 4:2:0
Битовая глубина                          : 8 бит
Тип развёртки                            : Прогрессивная
Метод сжатия                             : С потерями
Бит/(Пиксели*Кадры)                      : 0.318
Размер потока                            : 1,11 Гбайт (81%)
Библиотека кодирования                   : XviD 1.2.1 (UTC 2008-12-04)
Аудио
Идентификатор                            : 1
Формат                                   : AC-3
Формат/Информация                        : Audio Coding 3
Расширение режима                        : CM (complete main)
Параметр Endianness формата              : Big
Идентификатор кодека                     : 2000
Продолжительность                        : 1 ч. 34 м.
Вид битрейта                             : Постоянный
Битрейт                                  : 384 Кбит/сек
Каналы                                   : 2 канала
Расположение каналов                     : Front: L R
Частота                                  : 48,0 КГц
Частота кадров                           : 31,250 кадров/сек (1536 spf)
Битовая глубина                          : 16 бит
Метод сжатия                             : С потерями
Размер потока                            : 261 Мбайт (19%)
Выравнивание                             : Разделение по промежуткам
Продолжительность промежутка             : 42  мс. (1,00 видеокадр)
Время предзагрузки промежутка            : 500  мс.
-Скриншоты:


Смотреть онлайн


[trackeroc.ru].17761.torrent 
Торрент: Зарегистрирован   [ 2017-01-10 14:52 ]

Скачать торрент

14 KB

Статус: проверено
Скачан: 8 раз
Размер: 1.37 GB
 


_________________
[Профиль] [ЛС]
Показать сообщения:    
Ответить на тему

Текущее время: Сегодня 13:58

Часовой пояс: GMT + 4



Вы не можете начинать темы
Вы не можете отвечать на сообщения
Вы не можете редактировать свои сообщения
Вы не можете удалять свои сообщения
Вы не можете голосовать в опросах
Вы не можете прикреплять файлы к сообщениям
Вы можете скачивать файлы