Во все тяжкие / Breaking Bad (2008-2013) BDRip (сезон 1-5, серии 1-62 из 62) LostFilm

Ответить на тему

Статистика раздачи [Обновить пиров]
Размер:  46.61 GB   |    Зарегистрирован:  1 год 4 месяца   |    Скачан:  8 раз

Полного источника не было: 8 дней

 
 
 
 
Автор Сообщение

Admin ®

Стаж: 7 месяцев 8 дней

Сообщений: 4447

Откуда: trackeroc.ru


Пост 17-Июл-2015 11:59

[Цитировать]

--Во все тяжкие | Breaking Bad-- Год выпуска: 2008-2013 / Жанр: Драма, криминал
Страна: США | AMC
Продолжительность: ~ 50 мин
Перевод: Профессиональный (многоголосый, закадровый) / LostFilm /
Режиссер: Адам Бернштейн, Мишель Максвелл МакЛарен, Винс Джиллигэн--В ролях:
Брайан Крэнстон, Анна Ганн, Аарон Пол, Дин Норрис, Бетси Брандт, Эр Джей, Боб Оденкёрк, Джанкарло Эспозито, Джонатан Бэнкс, Стивен Майкл Квезада, Кристофер Казинс, Чарльз Бэйкер, Кристен Риттер, Мэтт Л. Джонс, Майкл Шамус Уайлз, Кармен Серано, Рэй Кэмпбелл, Джереми Битсуи, Марк Марголис, Дэвид Костабайл--Описание:
Школьный учитель химии Уолтер Уайт узнаёт, что болен раком лёгких. Учитывая сложное финансовое состояние дел семьи, а также перспективы, Уолтер решает заняться изготовлением метамфетамина. Для этого он привлекает своего бывшего ученика Джесси Пинкмана, когда-то исключённого из школы при активном содействии Уайта. Пинкман сам занимался «варкой мета», но накануне, в ходе рейда ОБН, он лишился подельника и лаборатории…
--Релиз
---Качество: BDRip
Формат: AVI | Видео кодек: XviD
Видео: 720x400 / 16:9 / 1800 kbps / 23.976 fps / 0.261 bit/pixel
Аудио #1: Русский (48,0 КГц, AC3 Dolby Digital, 5.1 ch, 448 Кбит/с)
Субтитры: Русские форсированные (вшитые, на надписи и испанскую речь)
-- --
-

Содержание

1 Сезон
1. Pilot / Пилот
2. Cat's in the Bag.../ Кот уже в мешке...
3. ...And the Bag's in the River / А мешок уже в реке
4. Cancer Man / Раковый больной
5. Gray Matter / Серое вещество
6. Crazy Handful of Nothin'/ Блеф на пустой руке
7. A No-Rough-Stuff-Type Deal / Тихий бизнес без суеты и напрягов
2 Сезон
01. Seven Thirty-Seven / Семьсот тридцать семь
02. Grilled / Попандос
03. Bit by a Dead Bee / Укус мертвой пчелы
04. Down / На дне
05. Breakage / Бой товара
06. Peekaboo / Ку-ку
07. Negro Y Azul / Синий мет на черном рынке
08. Better Call Saul / Надо звонить Солу!
09. 4 Days Out / 4 дня на природе
10. Over / Всё
11. Mandala / Мандала
12. Phoenix / Феникс
13. ABQ / АБК
3 Сезон
01. No Mas / Баста
02. Caballo sin nombre / Конь без клички
03. I.F.T. / Я.Т.Т.
04. Green Light / Зеленый цвет
05. Mas / По новой
06. Sunset / На закате
07. One Minute / Одна минута
08. I See You / Я тебя вижу
09. Kafkaesque / По-кафкиански
10. Fly / Муха
11. Abiquiu / Абикиу
12. Half Measures / Полумеры
13. Full Measure / Полная мера
4 Сезон
01. Box Cutter / Канцелярский нож
02. Thirty-Eight Snub / Тридцать восьмой, курносый
03. Open House / День открытых дверей
04. Bullet Points / Ключевые моменты
05. Shotgun / Боец
06. Cornered / В углу
07. Problem Dog / Проблемный пёс
08. Hermanos / Братья
09. Bug / Жучок
10. Salud
11. Crawl Space / Подпол
12. End Times / Конец света
13. Face Off / Кто кого
5 Сезон
01. Живи свободным или умри / Live Free or Die
02. Мадригал / Madrigal
03. Опасные условия / Hazard Pay
04. Пятьдесят один / Fifty-One
05. Мёртвый груз / Dead Freight
06. Выкуп / Buyout
07. Произнеси моё имя / Say My Name
08. Летящий над всем / Gliding Over All
09. Кровавые деньги / Blood Money
10. Зарытое / Buried
11. Признания / Confessions
12. Бешеный пёс / Rabid Dog
13. Тохаджили / To'hajiilee
14. Озимандия / Ozymandias
15. Гранитный штат / Granite State
16. Фелина / Felina
--

MI

Код:
Общее
Формат                                   : AVI
Формат/Информация                        : Audio Video Interleave
Размер файла                             : 765 Мбайт
Продолжительность                        : 47 м.
Общий поток                              : 2257 Кбит/сек
Программа кодирования                    : VirtualDubMod 1.5.10.3 | www.virtualdub-fr.org || (build 2550/release)
Библиотека кодирования                   : VirtualDubMod build 2550/release
Видео
Идентификатор                            : 0
Формат                                   : MPEG-4 Visual
Профиль формата                          : Advanced Simple@L5
Параметр BVOP формата                    : Да
Параметр QPel формата                    : Нет
Параметр GMC формата                     : Без точки перехода
Параметр матрицы формата                 : Default (MPEG)
Идентификатор кодека                     : XVID
Идентификатор кодека/Подсказка           : XviD
Продолжительность                        : 47 м.
Битрейт                                  : 1800 Кбит/сек
Ширина                                   : 720 пикселей
Высота                                   : 400 пикселей
Соотношение сторон                       : 16:9
Частота кадров                           : 23,976 кадра/сек
Цветовое пространство                    : YUV
Субдискретизация насыщенности            : 4:2:0
Битовая глубина                          : 8 бит
Тип развёртки                            : Прогрессивная
Метод сжатия                             : С потерями
Бит/(Пиксели*Кадры)                      : 0.261
Размер потока                            : 610 Мбайт (80%)
Библиотека кодирования                   : XviD 73
Аудио
Идентификатор                            : 1
Формат                                   : AC-3
Формат/Информация                        : Audio Coding 3
Расширение режима                        : CM (complete main)
Параметр Endianness формата              : Big
Идентификатор кодека                     : 2000
Продолжительность                        : 47 м.
Вид битрейта                             : Постоянный
Битрейт                                  : 448 Кбит/сек
Каналы                                   : 6 каналов
Расположение каналов                     : Front: L C R, Side: L R, LFE
Частота                                  : 48,0 КГц
Битовая глубина                          : 16 бит
Метод сжатия                             : С потерями
Размер потока                            : 152 Мбайт (20%)
Выравнивание                             : Разделение по промежуткам
Продолжительность промежутка             : 42  мс. (1,00 видеокадр)
Время предзагрузки промежутка            : 500  мс.
--

Скриншоты

-


Смотреть онлайн

[trackeroc.ru].7045.torrent 
Торрент: Зарегистрирован   [ 2015-07-17 11:59 ]

Скачать торрент

240 KB

Статус: проверено
Скачан: 49 раз
Размер: 46.61 GB
 

BiOS (17-июл-15)

_________________
[Профиль] [ЛС]
Показать сообщения:    
Ответить на тему

Текущее время: Сегодня 13:33

Часовой пояс: GMT + 4



Вы не можете начинать темы
Вы не можете отвечать на сообщения
Вы не можете редактировать свои сообщения
Вы не можете удалять свои сообщения
Вы не можете голосовать в опросах
Вы не можете прикреплять файлы к сообщениям
Вы можете скачивать файлы