Волчонок / Teen Wolf / Сезон: 5 / Серии: 1-20 [2015]

Ответить на тему

Статистика раздачи [Обновить пиров]
Размер:  11.71 GB   |    Зарегистрирован:  8 месяцев 29 дней   |    Скачан:  2 раза

Полного источника не было: 1 месяц 21 день

 
 
 
 
Автор Сообщение

Admin ®

Стаж: 7 месяцев 15 дней

Сообщений: 4459

Откуда: trackeroc.ru


Пост 14-Июл-2015 17:31

[Цитировать]

-Волчонок | Teen Wolf-- Год выпуска: 2015
Страна: США
Жанр: триллер, драма, комедия
Продолжительность: ~ 00:43:00-Перевод: Любительский (двухголосый закадровый)| Alternative Production-Режиссёр: Тим Эндрю, Расселл Малкэй, Тоби Уилкинс-В ролях: Тайлер Пози, Дилан О Брайен, Холлэнд Роден, Тайлер Хэклин, Линден Эшби, Кристал Рид, Мелисса Понцио, ДжейАр Борн, Йен Боэн, Сет Гиллиам-Описание: Продолжение американского фантастического остросюжетного сериала о юноше, не по своей воле ставшего оборотнем. О его взаимоотношениях с любимой девушкой, её семьёй и друзьями.- -|-Качество: HDTVRip
Формат: AVI
Видео: XviD, 720x400 (16:9), 23,976 fps, ~1300 kbps
Аудио: MP3, 48 kHz, 2 ch, 192 kbps - Rus
Субтитры: отсутствуют-

Релиз

(Alternative Production) (обновляемая)

MediaInfo

Код:
Общее
Полное имя                               : D:\загрузки\Волчонок. Пятый сезон\Teen.Wolf.S05E01.HDTVRip.ColdFilm.avi
Формат                                   : AVI
Формат/Информация                        : Audio Video Interleave
Размер файла                             : 423 Мбайт
Продолжительность                        : 41 м.
Общий поток                              : 1417 Кбит/сек
Программа кодирования                    : VirtualDubMod 1.5.10.2 (build 2540/release)
Библиотека кодирования                   : VirtualDubMod build 2540/release
Видео
Идентификатор                            : 0
Формат                                   : xvid
Идентификатор кодека                     : xvid
Продолжительность                        : 41 м.
Битрейт                                  : 1215 Кбит/сек
Ширина                                   : 720 пикселей
Высота                                   : 400 пикселей
Соотношение сторон                       : 16:9
Частота кадров                           : 23,976 кадра/сек
Бит/(Пиксели*Кадры)                      : 0.176
Размер потока                            : 363 Мбайт (86%)
Аудио
Идентификатор                            : 1
Формат                                   : MPEG Audio
Версия формата                           : Version 1
Профиль формата                          : Layer 3
Идентификатор кодека                     : 55
Идентификатор кодека/Подсказка           : MP3
Продолжительность                        : 41 м.
Вид битрейта                             : Постоянный
Битрейт                                  : 192 Кбит/сек
Каналы                                   : 2 канала
Частота                                  : 44,1 КГц
Метод сжатия                             : С потерями
Размер потока                            : 57,3 Мбайт (14%)
Выравнивание                             : Разделение по промежуткам
Продолжительность промежутка             : 42  мс. (1,00 видеокадр)
Время предзагрузки промежутка            : 500  мс.

Скриншоты

Раздача ведется путем добавления новых серий

Когда раздача ведётся путём добавления новых серий, при каждом добавлении создётся новый торрент. Чтобы начать докачку новой серии, пользователям необходимо сделать следующее:
(1) остановить скачивание,
(2) удалить старый торрент у себя из клиента (старые серии удалять не надо),
(3) скачать новый торрент и запустить его у себя в клиенте вместо старого, при этом указать клиенту путь в старую папку, куда и должно происходить скачивание новых серий.
Ваш клиент при этом должен произвести хеширование (проверку) старой папки (если не производит сам - помогите ему сделать это), и будет докачивать только те серии, которых у вас ещё нет. Старые серии при этом не удаляются, а продолжают раздаваться!
Eсли вы уже удалили старые серии, то предотвратить повторную закачку старых серий можно, отжав галочку в соответсвующих местах при запуске нового торрента. По возможности, желательно не удалять старые серии как можно дольше, чтобы релизёр не столько продолжал раздавать старые серии, а смог сконцентрироваться на новых.
-


Смотреть онлайн

[trackerock.ru].6954.torrent 
Торрент: Зарегистрирован   [ 2016-03-11 11:03 ]

Скачать торрент

61 KB

Статус: проверено
Скачан: 6 раз
Размер: 11.71 GB
 


_________________
[Профиль] [ЛС]
Показать сообщения:    
Ответить на тему

Текущее время: Сегодня 05:03

Часовой пояс: GMT + 4



Вы не можете начинать темы
Вы не можете отвечать на сообщения
Вы не можете редактировать свои сообщения
Вы не можете удалять свои сообщения
Вы не можете голосовать в опросах
Вы не можете прикреплять файлы к сообщениям
Вы можете скачивать файлы