Восьмое чувство / Sense8 (2017) WEBRip [H.264/1080p] (сезон 2, серии 1-10 из 10) OMSKBIRD скачать торрент

Reply to topic

DL-List and Torrent activity [Update пиров]
Size:  41 GB   |    Registered:  25 days   |    Completed:  0 times

Seeder not seen: Never

Leechers:  1  [  174 KB/s  ]   Show peers in full details
 
 
 
 
 
Author Message

BiOS ®

Longevity: 5 years 6 months

Posts: 2347

Location: East Siberia


Post 09-May-2017 11:40

[Quote]

Восьмое чувство / Sense8
«ВЫЖИТЬ. ВМЕСТЕ.»
- Производство: США, Georgeville Television, Studio JMS, NetFlix
Жанр: Фантастика, триллер, драма, детектив
Режиссер: Дэн Гласс, Энди Вачовски, Лана Вачовски, Джеймс МакТиг, Том Тыквер
Актеры: Джеми Клейтон, Макс Римельт, Анупам Кхер, Джеронимо Бест, Ари Брикман, Сара Сон, Фрима Аджьеман, Амл Амин, Навин Эндрюс, Ду На Пэ и др.
Описание:
Группа людей из разных точек мира неожиданно оказываются ментально связанными, теперь им придется найти способ, чтобы выжить, потому что за ними начинают охотиться те, кто видит в них угрозу для этого мира…

Дата мировой премьеры: 5 июня 2015
Продолжительность: ~ 00:55:00 серия
Качество видео: WEBRip 1080p
Перевод: Двуголосый закадровый, профессиональный | OMSKBIRD
Реклама: присутствуют аудио вставки рекламы
Видео: AVC/H.264, 1920x1080 (16:9), ~10.3 Mbps
Аудио # 1: AC3, 6 ch, 384 kbps - русский, двуголосый закадровый
Аудио # 2: AC3, 6 ch, 384 kbps - английский

Mediainfo:

Код:
General
Unique ID                                : 173294059652035721290212496880119896691 (0x825F38CC43B3D36BA1ECD279A254DA73)
Complete name                            : Sense8.S02E01.1080p.WEBRip.OmskBird.mkv
Format                                   : Matroska
Format version                           : Version 4 / Version 2
File size                                : 4.23 GiB
Duration                                 : 54mn 47s
Overall bit rate                         : 11.1 Mbps
Encoded date                             : UTC 2017-05-06 12:03:49
Writing application                      : mkvmerge v11.0.0 ('Alive') 64bit
Writing library                          : libebml v1.3.4 + libmatroska v1.4.5
Video
ID                                       : 1
Format                                   : AVC
Format/Info                              : Advanced Video Codec
Format profile                           : High@L4.1
Format settings, CABAC                   : Yes
Format settings, ReFrames                : 4 frames
Codec ID                                 : V_MPEG4/ISO/AVC
Duration                                 : 54mn 47s
Bit rate                                 : 10.3 Mbps
Width                                    : 1 920 pixels
Height                                   : 1 080 pixels
Display aspect ratio                     : 16:9
Frame rate mode                          : Constant
Frame rate                               : 23.976 (24000/1001) fps
Color space                              : YUV
Chroma subsampling                       : 4:2:0
Bit depth                                : 8 bits
Scan type                                : Progressive
Bits/(Pixel*Frame)                       : 0.207
Stream size                              : 3.94 GiB (93%)
Writing library                          : x264 core 148 r2762 90a61ec
Encoding settings                        : cabac=1 / ref=4 / deblock=1:-3:-3 / analyse=0x3:0x113 / me=hex / subme=8 / psy=1 / psy_rd=1.00:0.00 / mixed_ref=1 / me_range=16 / chroma_me=1 / trellis=2 / 8x8dct=1 / cqm=0 / deadzone=21,11 / fast_pskip=1 / chroma_qp_offset=-2 / threads=18 / lookahead_threads=3 / sliced_threads=0 / nr=0 / decimate=1 / interlaced=0 / bluray_compat=0 / constrained_intra=0 / bframes=3 / b_pyramid=2 / b_adapt=1 / b_bias=0 / direct=3 / weightb=1 / open_gop=0 / weightp=2 / keyint=250 / keyint_min=23 / scenecut=40 / intra_refresh=0 / rc_lookahead=50 / rc=crf / mbtree=1 / crf=17.0 / qcomp=0.60 / qpmin=0 / qpmax=69 / qpstep=4 / ip_ratio=1.40 / aq=1:1.00
Language                                 : English
Default                                  : Yes
Forced                                   : No
Color range                              : Limited
Matrix coefficients                      : BT.709
Audio #1
ID                                       : 2
Format                                   : AC-3
Format/Info                              : Audio Coding 3
Mode extension                           : CM (complete main)
Format settings, Endianness              : Big
Codec ID                                 : A_AC3
Duration                                 : 54mn 47s
Bit rate mode                            : Constant
Bit rate                                 : 384 Kbps
Channel(s)                               : 6 channels
Channel positions                        : Front: L C R, Side: L R, LFE
Sampling rate                            : 48.0 KHz
Frame rate                               : 31.250 fps (1536 spf)
Compression mode                         : Lossy
Stream size                              : 151 MiB (3%)
Title                                    : OmskBird 5.1
Language                                 : Russian
Default                                  : Yes
Forced                                   : No
Audio #2
ID                                       : 3
Format                                   : AC-3
Format/Info                              : Audio Coding 3
Mode extension                           : CM (complete main)
Format settings, Endianness              : Big
Codec ID                                 : A_AC3
Duration                                 : 54mn 47s
Bit rate mode                            : Constant
Bit rate                                 : 384 Kbps
Channel(s)                               : 6 channels
Channel positions                        : Front: L C R, Side: L R, LFE
Sampling rate                            : 48.0 KHz
Frame rate                               : 31.250 fps (1536 spf)
Compression mode                         : Lossy
Stream size                              : 151 MiB (3%)
Title                                    : eng
Language                                 : English
Default                                  : No
Forced                                   : No

Подготовка релиза:

Релиз-группа: OmskBird
Роли озвучивали: Павел Ярощик, Ольга Федорова
Перевод: Никита Коваль, Татьяна Масаковская, Николай Исаков
Звукорежиссер: Павел Квентов
Постер: Ксения Просветова
Монтаж и сведение звука: Юрий Гамов
-Скриншоты:


Смотреть онлайн


[trackeroc.org].20240.torrent 
Torrent: Registered   [ 2019-09-25 05:15 ]

Скачать торрент

104 KB

Status: checked
Completed: 86 times
Size: 41 GB
 

Admin (09-май-17)
Similar torrent
Forum Topic Author Size
Зарубежные сериалы Восьмое чувство / Sense8 (2016-2018) WEBRip (1-2 сезон+Спецвыпуск) NewStudio BiOS 18.45 GB
Зарубежные сериалы Восьмое чувство / Sense8 (2015) WEBRip [H.264/720p] (сезон 1, серии 1-12 из 12) OMSKBIRD BiOS 20.12 GB
Ужасы ,мистика ,триллеры Тёмное чувство / Dark Sense (2019) WEB-DLRip [MVO] [AD] BiOS 1.31 GB

_________________


Last edited by BiOS on 2019-09-25 05:47; edited 6 times in total
[Profile] [PM]

DarthNihilus

Longevity: 4 years 11 months

Posts: 737

Location: Korriban


Post 16-May-2017 17:50 (after 7 days)

[Quote]

вачовски........хмммммм....... фильм о мойщице туалетов-принцессе меня не впечатлил.... 

_________________
[Profile] [PM]
Display posts from previous:    
Reply to topic

The time now is: Today 05:31

All times are GMT + 4 Hours



You cannot post new topics in this forum
You cannot reply to topics in this forum
You cannot edit your posts in this forum
You cannot delete your posts in this forum
You cannot vote in polls in this forum
You cannot attach files in this forum
You can download files in this forum