Воспоминания Хрустального озера: Полная история пятницы 13-го / Crystal Lake Memories: The Complete History of Friday the 13th (2013) HDRip [H.264/720p]

Ответить на тему

Статистика раздачи [Обновить пиров]
Размер:  14.91 GB   |    Зарегистрирован:  8 месяцев 26 дней   |    Скачан:  0 раз

Полного источника не было: 8 месяцев 22 дня

 
   
 
 
 
Автор Сообщение

BiOS ®

Стаж: 2 года 11 месяцев

Сообщений: 1900

Откуда: Raccoon City


Пост 01-Июл-2016 19:53

[Цитировать]

Воспоминания Хрустального озера: Полная история пятницы 13-го
Crystal Lake Memories: The Complete History of Friday the 13th
- Жанр: Документальный
Режиссер: Дэниэл Фаррандс
Актеры: Мелисса Эд, Лойд Альбен, Дайан Альмейда, Эрик Андерсон, Кристи Энгус, Джуди Аронсон, Дженнифер Банко, Диана Бэрроус, Гэбриел Барталос, Кимберли Бек
Описание:
Взгляд на то, как создавалась самая знаковая хоррор-франшиза. С того момента, когда в 1980 году вышел первый фильм серии "Пятница 13-е", повествовавший о маньяке, терроризировавшем лагерь "Хрустальное озеро", прошло более 30-ти лет. С тех пор франшиза "Пятница 13-е" стала настоящим хитом, породив двенадцать продолжений-ремейков и огромный ассортимент сопутствующих товаров и предметов коллекционирования. В создании этого документального фильма принимали участие практически все люди, так или иначе связанные с созданием этой легендарной франшизы.
Дата мировой премьеры: 13 сентября 2013
Релиз от: Колобок
Продолжительность: 3:51:03+2:49:29
Качество видео: HDRip
Перевод: Двухголосый закадровый (DeadSno & den904)
Язык: Русский
Автор перевода: Северный
Вид субтитров: Вшитые
Видео: AVC/H.264, 1280 x 720 (16:9), ~5052 Kbps
Аудио: AC3, 2 ch, 192Kbps

Mediainfo

Код:
Общее
Уникальный идентификатор : 224918829989318371503194244269870141141 (0xA935CA7D39DAA95DBE0FF6C96E9FCED5)
Полное имя : C:\Воспоминания Хрустального озера - Полная история пятницы 13-го (Часть 1).mkv
Формат : Matroska
Версия формата : Version 4 / Version 2
Размер файла : 8,63 Гбайт
Продолжительность : 3 ч. 51 м.
Общий поток : 5350 Кбит/сек
Дата кодирования : UTC 2016-03-20 10:22:04
Программа кодирования : mkvmerge v6.2.0 ('Promised Land') built on Apr 28 2013 12:22:01
Библиотека кодирования : libebml v1.3.0 + libmatroska v1.4.0
Видео
Идентификатор : 2
Формат : AVC
Формат/Информация : Advanced Video Codec
Профиль формата : High@L4.1
Параметр CABAC формата : Да
Параметр ReFrames формата : 5 кадров
Идентификатор кодека : V_MPEG4/ISO/AVC
Продолжительность : 3 ч. 51 м.
Битрейт : 5052 Кбит/сек
Ширина : 1280 пикселей
Высота : 720 пикселей
Соотношение сторон : 16:9
Режим частоты кадров : Постоянный
Частота кадров : 23,976 (24000/1001) кадра/сек
Цветовое пространство : YUV
Субдискретизация насыщенности : 4:2:0
Битовая глубина : 8 бит
Тип развёртки : Прогрессивная
Бит/(Пиксели*Кадры) : 0.229
Размер потока : 8,15 Гбайт (94%)
Язык : English
Default : Да
Forced : Нет
Аудио
Идентификатор : 3
Формат : AC-3
Формат/Информация : Audio Coding 3
Расширение режима : CM (complete main)
Параметр Endianness формата : Big
Идентификатор кодека : A_AC3
Продолжительность : 3 ч. 51 м.
Вид битрейта : Постоянный
Битрейт : 192 Кбит/сек
Каналы : 2 канала
Расположение каналов : Front: L R
Частота : 48,0 КГц
Частота кадров : 31,250 кадров/сек (1536 spf)
Метод сжатия : С потерями
Размер потока : 317 Мбайт (4%)
Default : Да
Forced : Нет
Текст
Идентификатор : 1
Формат : UTF-8
Идентификатор кодека : S_TEXT/UTF8
Идентификатор кодека/Информация : UTF-8 Plain Text
Default : Да
Forced : Нет
-Скриншоты:


Смотреть онлайн


[trackeroc.ru].13554.torrent 
 СЕРЕБРЯНАЯ РАЗДАЧА! СКАЧАННОЕ ЗАСЧИТЫВАЕТСЯ ТОЛЬКО НАПОЛОВИНУ! 
Торрент: Зарегистрирован   [ 2016-07-01 19:53 ]

Скачать торрент

76 KB

Статус: проверено
Скачан: 15 раз
Размер: 14.91 GB
 

Admin (01-июл-16)
Похожие торренты
Форум Тема Автор Размер
Комедии Реальные воспоминания международного убийцы / True Memoirs of an International Assassin (2016) WEBRip BiOS 1.46 GB


Последний раз редактировалось: BiOS (2017-02-20 16:52), всего редактировалось 1 раз
[Профиль] [ЛС]

BiOS ®

Стаж: 2 года 11 месяцев

Сообщений: 1900

Откуда: Raccoon City


Пост 03-Июл-2016 00:06 (спустя 1 день 4 часа)

[Цитировать]

Посмотрел сеё произведение. Остался доволен. Жаль, что наши редко такие вещи делают) 
[Профиль] [ЛС]
Показать сообщения:    
Ответить на тему

Текущее время: Сегодня 13:54

Часовой пояс: GMT + 4



Вы не можете начинать темы
Вы не можете отвечать на сообщения
Вы не можете редактировать свои сообщения
Вы не можете удалять свои сообщения
Вы не можете голосовать в опросах
Вы не можете прикреплять файлы к сообщениям
Вы можете скачивать файлы