Война миров / The War of the Worlds (2019) WEB-DLRip (сезон 1, серии 1-3 из 3) LostFilm скачать торрент

Reply to topic

DL-List and Torrent activity [Update пиров]
Size:  4.98 GB   |    Registered:  1 month 19 days   |    Completed:  0 times
Seeders:  4  [  63 KB/s  ]   Show peers in full details
 
 
 
 
Author Message

BiOS ®

Longevity: 5 years 9 months

Posts: 2407

Location: Earth


Post 07-Dec-2019 08:36

[Quote]

Война миров / The War of the Worlds - Производство: Великобритания / Mammoth Screen
Жанр: фантастика, драма, боевик
Режиссер: Крэйг Вивейрос
Актеры: Элинор Томлинсон, Рейф Сполл, Джонатан Арис, Вуди Норман, Роберт Карлайл, Руперт Грейвз, Николя Ле Прево, Талия Блэр, Рейд Андерсон, Филип Гаскойн и др.
Описание:
В центре истории — только начавшие совместную жизнь Джордж и Эми, которым приходится столкнуться с ужасом инопланетного вторжения.

Дата мировой премьеры: 6 октября 2019
Продолжительность: ~00:53:00 серия
Качество видео: WEB-DLRip
Перевод: Многоголосый профессиональный - LostFilm
Реклама: Присутствует заставка и логотип
Видео: AVC/H.264, 1280x720 (16:9), ~4000 Kbps
Аудио: AC3, 2 ch, 384 Kbps -русский

MediaInfo:

Общее
Уникальный идентификатор : 49515614809407323424865499178858468955 (0x25405C4B89B95187A03AFE67A5C0565B)
Полное имя : The.War.of.the.Worlds.S01E01.720p.rus.LostFilm.TV.mkv
Формат : Matroska
Версия формата : Version 4
Размер файла : 1,67 Гбайт
Продолжительность : 54 м. 39 с.
Общий поток : 4385 Кбит/сек
Программа кодирования : Lavf58.20.100
Библиотека кодирования : Lavf58.20.100
ErrorDetectionType : Per level 1
Видео
Идентификатор : 1
Формат : AVC
Формат/Информация : Advanced Video Codec
Профиль формата : High@L4.1
Настройки формата : CABAC / 4 Ref Frames
Параметр CABAC формата : Да
Параметр RefFrames формата : 4 кадра
Идентификатор кодека : V_MPEG4/ISO/AVC
Продолжительность : 54 м. 39 с.
Битрейт : 4000 Кбит/сек
Ширина : 1280 пикселей
Высота : 720 пикселей
Соотношение сторон : 16:9
Режим частоты кадров : Постоянный
Частота кадров : 25,000 кадров/сек
Цветовое пространство : YUV
Субдискретизация насыщенности : 4:2:0
Битовая глубина : 8 бит
Тип развёртки : Прогрессивная
Бит/(Пиксели*Кадры) : 0.174
Размер потока : 1,49 Гбайт (89%)
Библиотека кодирования : x264 core 112 r1834 a51816a
Настройки программы : cabac=1 / ref=4 / deblock=1:-3:-2 / analyse=0x3:0x113 / me=hex / subme=7 / psy=1 / psy_rd=1.00:0.00 / mixed_ref=1 / me_range=16 / chroma_me=1 / trellis=1 / 8x8dct=1 / cqm=0 / deadzone=21,11 / fast_pskip=1 / chroma_qp_offset=-2 / threads=12 / sliced_threads=0 / nr=0 / decimate=1 / interlaced=0 / constrained_intra=0 / bframes=5 / b_pyramid=2 / b_adapt=1 / b_bias=0 / direct=1 / weightb=1 / open_gop=0 / weightp=2 / keyint=250 / keyint_min=25 / scenecut=40 / intra_refresh=0 / rc_lookahead=40 / rc=2pass / mbtree=1 / bitrate=4000 / ratetol=1.0 / qcomp=0.60 / qpmin=0 / qpmax=51 / qpstep=4 / cplxblur=20.0 / qblur=0.5 / vbv_maxrate=10000 / vbv_bufsize=256000 / ip_ratio=1.40 / aq=1:1.00 / nal_hrd=none
Default : Да
Forced : Нет
Аудио
Идентификатор : 2
Формат : AC-3
Формат/Информация : Audio Coding 3
Коммерческое название : Dolby Digital
Идентификатор кодека : A_AC3
Продолжительность : 54 м. 39 с.
Вид битрейта : Постоянный
Битрейт : 384 Кбит/сек
Каналы : 2 канала
ChannelLayout : L R
Частота : 48,0 КГц
Частота кадров : 31,250 кадров/сек (1536 SPF)
Метод сжатия : С потерями
Задержка видео : -80 мс.
Размер потока : 150 Мбайт (9%)
ServiceKind/String : Complete Main
Default : Да
Forced : Нет
-Скриншоты:


Смотреть онлайн


[trackeroc.org].29632.torrent 
Torrent: Registered   [ 2019-12-07 08:36 ]

Скачать торрент

26 KB

Status: checked
Completed: 20 times
Size: 4.98 GB
 

Admin (08-дек-19)
Similar torrent
Forum Topic Author Size
Сasual games, Тайм менеджмент Hermes 2: War of the Gods / Гермес 2: Война богов (2019) (RUS) Admin 484 MB
Зарубежные сериалы Modern War Gear Solid / Современная Война Жёсткий Механизм / Серии: 1-5 из 5 (+2 бонуса) [2011] [HDTVRip] DUB (StopGame) BiOS 561 MB
Квесты, я ищу, Поиск предметов, Hidden Object Worlds Align: Beginning / Слияние миров: Начало [RUS / ENG] (2019) Admin 1.16 GB
Музыка других жанров Консультанты В. Смирнов, П. Сурин. | Великая Отечественная война 1941-1945. (1973) [MP3] BiOS 528 MB

_________________
[Profile] [PM]
Display posts from previous:    
Reply to topic

The time now is: Today 21:22

All times are GMT + 4 Hours



You cannot post new topics in this forum
You cannot reply to topics in this forum
You cannot edit your posts in this forum
You cannot delete your posts in this forum
You cannot vote in polls in this forum
You cannot attach files in this forum
You can download files in this forum