Врата ада / Gates of Hell (2010) SATRip

Ответить на тему
 
Автор Сообщение

BiOS ®

Стаж: 2 года 7 месяцев

Сообщений: 1732

Откуда: Raccoon City


Пост 23-Дек-2015 05:03

[Цитировать]

Врата ада / Gates of Hell - Режиссер / Телекомпания: Стивен Дост / Red Marble Media, ТВ-3
Жанр: Документальный
Описание:Ад. Неужели эта вечная обитель смерти, вечных мук и грехов, существует? Ад - миф или реальность? Многие верят в ад и в то, что на Земле есть врата ада. Извержение вулкана в Исландии, мрачные пещеры, тянущиеся под джунглями, огненное озеро в африканской пустыне - все эти разные места объединяет одно - наши предки верили, что через них можно попасть в ад. Сквозь тысячелетия и бесчисленное множество культур люди верили в ад, существующий под землей, и что туда можно спуститься, и всё увидеть своими глазами. Есть места, где исследователи находят доказательства тому, что их считали входом в мир иной. И эти находки поражают. После знакомства с такими местами и древними легендами вырисовывается картина преисподней. От чего возникает вопрос, веками мучавший нас, что нас ждет там, за вратами ада?Продолжительность: 01:28:09
Качество видео: SATRip
Перевод: Дублированный
Видеокодек: Xvid
Битрейт видео: ~1364 Кбит/сек
Размер кадра: 704x384
Аудиокодек: AC3, 2ch
Битрейт аудио: 192 Кбит/c

Mediainfo

Код:
Общее
Полное имя : F:\видео\фильмы\Врата в ад.2010.SATRip.avi
Полное имя : F:\видео\фильмы\Врата в ад.2010.SATRip.avi  Формат : AVI
Формат : AVI  Формат/Информация : Audio Video Interleave
Формат/Информация : Audio Video Interleave  Размер файла : 1,00 Гбайт
Размер файла : 1,00 Гбайт  Продолжительность : 1 ч. 28 м.
Продолжительность : 1 ч. 28 м.  Общий поток : 1629 Кбит/сек
Общий поток : 1629 Кбит/сек  Программа кодирования : VirtualDubMod 1.5.10.3 | www.virtualdub-fr.org || (build 2550/release)
Программа кодирования : VirtualDubMod 1.5.10.3 | www.virtualdub-fr.org || (build 2550/release)  Библиотека кодирования : VirtualDubMod build 2550/release
Библиотека кодирования : VirtualDubMod build 2550/release
Видео
Идентификатор : 0
Идентификатор : 0  Формат : MPEG-4 Visual
Формат : MPEG-4 Visual  Профиль формата : Advanced Simple@L5
Профиль формата : Advanced Simple@L5  Параметр BVOP формата : 2
Параметр BVOP формата : 2  Параметр QPel формата : Нет
Параметр QPel формата : Нет  Параметр GMC формата : Без точки перехода
Параметр GMC формата : Без точки перехода  Параметр матрицы формата : Выборочная
Параметр матрицы формата : Выборочная  Идентификатор кодека : XVID
Идентификатор кодека : XVID  Идентификатор кодека/Подсказка : XviD
Идентификатор кодека/Подсказка : XviD  Продолжительность : 1 ч. 28 м.
Продолжительность : 1 ч. 28 м.  Битрейт : 1364 Кбит/сек
Битрейт : 1364 Кбит/сек  Ширина : 704 пикселя
Ширина : 704 пикселя  Высота : 384 пикселя
Высота : 384 пикселя  Соотношение сторон : 1,85:1
Соотношение сторон : 1,85:1  Частота кадров : 25,000 кадров/сек
Частота кадров : 25,000 кадров/сек  Цветовое пространство : YUV
Цветовое пространство : YUV  Субдискретизация насыщенности : 4:2:0
Субдискретизация насыщенности : 4:2:0  Битовая глубина : 8 бит
Битовая глубина : 8 бит  Тип развёртки : Прогрессивная
Тип развёртки : Прогрессивная  Метод сжатия : С потерями
Метод сжатия : С потерями  Бит/(Пиксели*Кадры) : 0.202
Бит/(Пиксели*Кадры) : 0.202  Размер потока : 860 Мбайт (84%)
Размер потока : 860 Мбайт (84%)  Библиотека кодирования : XviD 73
Библиотека кодирования : XviD 73
Аудио
Идентификатор : 1
Идентификатор : 1  Формат : AC-3
Формат : AC-3  Формат/Информация : Audio Coding 3
Формат/Информация : Audio Coding 3  Расширение режима : CM (complete main)
Расширение режима : CM (complete main)  Параметр Endianness формата : Big
Параметр Endianness формата : Big  Идентификатор кодека : 2000
Идентификатор кодека : 2000  Продолжительность : 1 ч. 28 м.
Продолжительность : 1 ч. 28 м.  Вид битрейта : Постоянный
Вид битрейта : Постоянный  Битрейт : 192 Кбит/сек
Битрейт : 192 Кбит/сек  Каналы : 2 канала
Каналы : 2 канала  Расположение каналов : Front: L R
Расположение каналов : Front: L R  Частота : 48,0 КГц
Частота : 48,0 КГц  Битовая глубина : 16 бит
Битовая глубина : 16 бит  Метод сжатия : С потерями
Метод сжатия : С потерями  Размер потока : 121 Мбайт (12%)
Размер потока : 121 Мбайт (12%)  Выравнивание : Разделение по промежуткам
Выравнивание : Разделение по промежуткам
-Скриншоты:
Похожие торренты
Форум Тема Автор Размер
Ужасы мистика триллеры Врата тьмы / Pay the Ghost (2015) WEB-DL 1080p BiOS 3.4 GB

_________________
[Профиль] [ЛС]
Показать сообщения:    
Ответить на тему

Текущее время: Сегодня 12:04

Часовой пояс: GMT + 4



Вы не можете начинать темы
Вы не можете отвечать на сообщения
Вы не можете редактировать свои сообщения
Вы не можете удалять свои сообщения
Вы не можете голосовать в опросах
Вы не можете прикреплять файлы к сообщениям
Вы не можете скачивать файлы