Врата тьмы / Pay the Ghost (2015) WEB-DL 1080p

Ответить на тему

Статистика раздачи [Обновить пиров]
Скачали
Размер:  3.4 GB   |    Зарегистрирован:  1 год 1 месяц   |    Скачан:  7 раз

Полного источника не было: 29 дней

 
 
 
 
Автор Сообщение

BiOS ®

Стаж: 2 года 7 месяцев

Сообщений: 1730

Откуда: Raccoon City


Пост 22-Окт-2015 07:35

[Цитировать]

-Врата тьмы / Pay the Ghost«Мир мёртвых ближе, чем кажется»-- Год выпуска: 2015
Страна: США / Midnight Kitchen Productions, Voltage Films
Жанр: Ужасы, Триллер
Продолжительность: ~ 01:34:05
Режиссёры: Ули Эдель
Продюсер: Николя Картье, Крэйг Дж. Флорес, Йен Леви-В ролях: Николас Кейдж, Сара Уэйн Каллис, Алекс Маллари-мл., Вероника Феррес, Лирик Бент, Эрин Бойес, Джек Фултон, София Уэллс, Элизабет Джинна ле Ру, Марк Ирвингсен, Максвелл МакКейб-Локос, Хуан Карлос Велис, Лорен Битти-Описание: Во время ночного праздничного парада в Нью-Йорке у профессора Майка Кола бесследно пропадает его маленький сын. Полиции не удается найти ребенка, однако после собственного расследования отец узнает, что некое мощное древнее проклятие забирает детей каждый год. Чтобы вернуть себе своего сына, у него есть только один шанс — в ночь на Хэллоуин отправиться по ту сторону врат тьмы…-Качество: WEB-DL 1080p
Формат: MKV
Видео: MPEG-4 AVC, 4251 Кбит/с, 1912x792
Аудио: Русский (AC3, 6 ch, 384 Кбит/с), английский (AC3, 6 ch, 448 Кбит/с)
Озвучивание: Любительское (двухголосое) [GreenРай Studio]-

MediaInfo

Код:
Общее
Уникальный идентификатор : 252549499036391944864066456505998280402 (0xBDFF43A6C472F622AC37191F378A86D2)
Полное имя : C:\Users\Downloads\Wrata.T'my.2015.WEB-DLRip.1080p.mkv
Формат : Matroska
Версия формата : Version 4 / Version 2
Размер файла : 3,40 Гбайт
Продолжительность : 1 ч. 34 м.
Общий поток : 5179 Кбит/сек
Дата кодирования : UTC 2015-09-19 22:56:22
Программа кодирования : mkvmerge v8.2.0 ('World of Adventure') 64bit
Библиотека кодирования : libebml v1.3.1 + libmatroska v1.4.2
DURATION : 01:34:05.600000000
NUMBER_OF_FRAMES : 176425
NUMBER_OF_BYTES : 270988800
_STATISTICS_WRITING_APP : mkvmerge v8.2.0 ('World of Adventure') 64bit
_STATISTICS_WRITING_DATE_UTC : 2015-09-19 22:56:22
_STATISTICS_TAGS : BPS DURATION NUMBER_OF_FRAMES NUMBER_OF_BYTES
Видео
Идентификатор : 1
Формат : AVC
Формат/Информация : Advanced Video Codec
Профиль формата : High@L4
Параметр CABAC формата : Да
Параметр ReFrames формата : 5 кадров
Идентификатор кодека : V_MPEG4/ISO/AVC
Продолжительность : 1 ч. 34 м.
Битрейт : 4244 Кбит/сек
Ширина : 1912 пикселей
Высота : 792 пикселя
Соотношение сторон : 2,40:1
Режим частоты кадров : Постоянный
Частота кадров : 23,976 кадра/сек
Цветовое пространство : YUV
Субдискретизация насыщенности : 4:2:0
Битовая глубина : 8 бит
Тип развёртки : Прогрессивная
Бит/(Пиксели*Кадры) : 0.117
Размер потока : 2,79 Гбайт (82%)
Заголовок : Pay.the.Ghost
Язык : Russian
Default : Да
Forced : Нет
Цветовой диапазон : Limited
Основные цвета : BT.709
Характеристики трансфера : BT.709
Коэффициенты матрицы : BT.709
Аудио #1
Идентификатор : 2
Формат : AC-3
Формат/Информация : Audio Coding 3
Расширение режима : CM (complete main)
Параметр Endianness формата : Big
Идентификатор кодека : A_AC3
Продолжительность : 1 ч. 34 м.
Вид битрейта : Постоянный
Битрейт : 384 Кбит/сек
Каналы : 6 каналов
Расположение каналов : Front: L C R, Side: L R, LFE
Частота : 48,0 КГц
Метод сжатия : С потерями
Размер потока : 258 Мбайт (7%)
Заголовок : GreenРай Studio
Язык : Russian
Default : Да
Forced : Нет
Аудио #2
Идентификатор : 3
Формат : AC-3
Формат/Информация : Audio Coding 3
Расширение режима : CM (complete main)
Параметр Endianness формата : Big
Идентификатор кодека : A_AC3
Продолжительность : 1 ч. 34 м.
Вид битрейта : Постоянный
Битрейт : 448 Кбит/сек
Каналы : 6 каналов
Расположение каналов : Front: L C R, Side: L R, LFE
Частота : 48,0 КГц
Метод сжатия : С потерями
Размер потока : 302 Мбайт (9%)
Заголовок : Original
Язык : English
Default : Нет
Forced : Нет
Скриншоты:


Смотреть онлайн

[trackeroc.ru].9082.torrent 
Торрент: Зарегистрирован   [ 2015-10-22 07:42 ]

Скачать торрент

18 KB

Статус: проверено
Скачан: 47 раз
Размер: 3.4 GB
 

Angel (22-окт-15), Admin (22-окт-15), Darth Pepel (02-янв-16)
Похожие торренты
Форум Тема Автор Размер
Квесты , я ищу , Поиск предметов Hidden Object Dark Canvas 3: A Murder Exposed [CE] / Холcт Тьмы 3. Открытое убийство [КИ] [P] [RUS/ENG / ENG] (2015) HOPE 678 MB
Квесты , я ищу , Поиск предметов Hidden Object Dark Romance 3: The Swan Sonata CE/Роман тьмы 3. Лебединое озеро. (2015) (Alawar) (RUS) [P] HOPE 1.11 GB
Квесты , я ищу , Поиск предметов Hidden Object Dark Dimensions 4: Somber Song Collector’s Edition/ Измерения тьмы 4. Мрачный этюд (2014) (Alawar) (RUS) [P] HOPE 1.48 GB
Зарубежные сериалы Области тьмы / Limitless / Сезон: 1 / Серии: 1-22 [2015] Admin 15.72 GB
Документальные Трейлеры Врата ада / Gates of Hell (2010) SATRip BiOS 1 GB

_________________
[Профиль] [ЛС]
Показать сообщения:    
Ответить на тему

Текущее время: Сегодня 14:12

Часовой пояс: GMT + 4



Вы не можете начинать темы
Вы не можете отвечать на сообщения
Вы не можете редактировать свои сообщения
Вы не можете удалять свои сообщения
Вы не можете голосовать в опросах
Вы не можете прикреплять файлы к сообщениям
Вы можете скачивать файлы