Вук / Лисёнок Вук / Vyk (1981) DVDRip

Ответить на тему

Статистика раздачи [Обновить пиров]
Размер:  1.26 GB   |    Зарегистрирован:  1 год 4 месяца   |    Скачан:  2 раза
Сидов:  35  [  0 KB/s  ]   Личеров:  2  [  0 KB/s  ]   Подробная статистика пиров
   
 
Автор Сообщение

BiOS ®

Стаж: 2 года 7 месяцев

Сообщений: 1735

Откуда: Raccoon City


Пост 07-Авг-2015 16:47

[Цитировать]

Лисёнок Вук- Страна: Венгрия
Студия: Pannónia Filmmstúdió
Год выхода: 1981
Жанр: Мультфильм-Режиссер: Аттила Даргаи
Актеры: Юдит Погани, Йожеф Гябронка, Тери Фёлди, Гила Сабо, Ласло Чаканьи, Эржебет Кутвёлдьи, Тибор Бичкеи, Миклош Бенедек, Дьюла Бодроги-Описание: Этот мультипликационный фильм, созданный по мотивам одноименной сказки И. Фекете, рассказывает о приключениях маленького озорного лисенка Вука. Много пережил этот хвастунишка, прежде чем превратился в сильного умного лиса, сумевшего перехитрить даже известного охотника Глaдкoкoжeгo.-Продолжительность: 01:05:19
Перевод: Дубляж-Качество: DVDRip
Видео: XVID, 720x544, 25.00fps, 2546Kbps
Звук: Dolby, AC3, 48000Hz stereo, 192Kbps 

MediaInfo

Код:
Общее
Формат                           : AVI
Формат/Информация                : Audio Video Interleave
Размер файла                     : 1,26 Гбайт
Продолжительность                : 1 ч. 5 м.
Общий поток                      : 2748 Кбит/сек
Программа кодирования            : VirtualDubModRus 1.5.10.2 (build 2540/release)
Библиотека кодирования           : VirtualDubMod build 2540/release
Видео
Идентификатор                    : 0
Формат                           : MPEG-4 Visual
Профиль формата                  : Advanced Simple@L5
Параметр BVOP формата            : 1
Параметр QPel формата            : Нет
Параметр GMC формата             : Без точки перехода
Параметр матрицы формата         : Выборочная
Идентификатор кодека             : XVID
Идентификатор кодека/Подсказка   : XviD
Продолжительность                : 1 ч. 5 м.
Битрейт                          : 2546 Кбит/сек
Ширина                           : 720 пикс.
Высота                           : 544 пикс.
Соотношение сторон               : 4:3
Частота кадров                   : 25,000 кадр/сек
Цветовое пространство            : YUV
Подвыборка цветности             : 4:2:0
Битовая глубина                  : 8 бит
Тип развёртки                    : Прогрессивная
Метод сжатия                     : С потерями
Бит/(Пиксели*Кадры)              : 0.260
Размер потока                    : 1,17 Гбайт (93%)
Библиотека кодирования           : XviD 1.2.0.dev47 (UTC 2006-11-01)
Аудио
Идентификатор                    : 1
Формат                           : AC-3
Формат/Информация                : Audio Coding 3
Расширение режима                : CM (complete main)
Идентификатор кодека             : 2000
Продолжительность                : 1 ч. 5 м.
Вид битрейта                     : Постоянный
Битрейт                          : 192 Кбит/сек
Канал(ы)                         : 2 канала(ов)
Расположение каналов             : Front: L R
Частота                          : 48,0 КГц
Битовая глубина                  : 16 бит
Метод сжатия                     : С потерями
Задержка видео                   : 16 мс.
Размер потока                    : 90,3 Мбайт (7%)
Выравнивание                     : Разделение по промежуткам
Продолжительность промежутка     : 40  мс. (1,00 видеокадр)
Время предзагрузки промежутка    : 500 ms
Язык                             : Russian
-Скриншоты:


Смотреть онлайн

[trackeroc.ru].7377.torrent 
Торрент: Зарегистрирован   [ 2015-08-07 16:47 ]

Скачать торрент

13 KB

Статус: проверено
Скачан: 19 раз
Размер: 1.26 GB
 

Admin (07-авг-15), Angel (11-авг-15)

_________________
[Профиль] [ЛС]
Показать сообщения:    
Ответить на тему

Текущее время: Сегодня 19:20

Часовой пояс: GMT + 4



Вы не можете начинать темы
Вы не можете отвечать на сообщения
Вы не можете редактировать свои сообщения
Вы не можете удалять свои сообщения
Вы не можете голосовать в опросах
Вы не можете прикреплять файлы к сообщениям
Вы можете скачивать файлы