Watch Dogs (2014) WEBRip [H.264/1080p-LQ] скачать торрент

Ответить на тему

Статистика раздачи [Обновить пиров]
Размер:  4.77 GB   |    Зарегистрирован:  1 год 4 месяца   |    Скачан:  1 раз

Полного источника не было: 8 месяцев 29 дней

 
   
 
 
 
Автор Сообщение

BiOS ®

Стаж: 3 года 3 месяца

Сообщений: 1993

Откуда: Raccoon City


Пост 02-Мар-2016 00:53

[Цитировать]

Watch Dogs - Жанр: Боевик, Игровой фильм
Описание:
Все друг с другом связаны. Мы зависим от новинок рынка высоких технологий, ведь лишь с их помощью узнаем, что происходит в мире. Но у прогресса есть и темная сторона. Каждое наше действие оставляет след: каждый наш шаг, каждая остановка, все, что нам нравится или не нравится. И дело не только в нас. Мегаполисы опутаны цифровыми сетями. Городская инфраструктура контролируется и управляется сложнейшими системами. В Watch_Dogs Чикаго подчиняется Центральной Операционной Системе (ctOS), именно она содержит информацию обо всех жителях. И тот, кто получит к ней доступ, получит контроль над городом. Эйден Пирс – выдающийся хакер с криминальным прошлым, чьи поступки стали причиной трагедии. Чтобы отомстить за свою семью, он выходит на тропу войны – и вы вместе с ним. Эйден способен взламывать и использовать все, что подключено к городской информационной сети – все, что его окружает. Доступ к камерам безопасности, загрузка персональных данных, отслеживание местонахождения людей, управление светофорами и общественным транспортом… Сам Чикаго станет вашим оружием. Вам лишь нужно научиться им пользоваться.
Продолжительность: 03:44:17
Качество видео: WEBRip
Перевод: Дублированный
Видео: AVC/H.264, 1920x1080, ~2784 Кбит/сек
Аудио: AAC, 2 ch, 254 Кбит/сек, CBR

Mediainfo:

Код:
Общее
Полное имя                               : X:\Films\Watch Dogs [игрофильм].mp4
Формат                                   : MPEG-4
Профиль формата                          : Base Media
Идентификатор кодека                     : isom
Размер файла                             : 4,77 Гбайт
Продолжительность                        : 3 ч. 44 м.
Общий поток                              : 3045 Кбит/сек
Программа кодирования                    : Lavf57.2.100
Видео
Идентификатор                            : 1
Формат                                   : AVC
Формат/Информация                        : Advanced Video Codec
Профиль формата                          : High@L4
Параметр CABAC формата                   : Да
Параметр ReFrames формата                : 3 кадра
Идентификатор кодека                     : avc1
Идентификатор кодека/Информация          : Advanced Video Coding
Продолжительность                        : 3 ч. 44 м.
Битрейт                                  : 2784 Кбит/сек
Ширина                                   : 1920 пикселей
Высота                                   : 1080 пикселей
Соотношение сторон                       : 16:9
Режим частоты кадров                     : Постоянный
Частота кадров                           : 25,000 кадров/сек
Цветовое пространство                    : YUV
Субдискретизация насыщенности            : 4:2:0
Битовая глубина                          : 8 бит
Тип развёртки                            : Прогрессивная
Бит/(Пиксели*Кадры)                      : 0.054
Размер потока                            : 4,36 Гбайт (91%)
Аудио
Идентификатор                            : 2
Формат                                   : AAC
Формат/Информация                        : Advanced Audio Codec
Профиль формата                          : LC
Идентификатор кодека                     : 40
Продолжительность                        : 3 ч. 44 м.
Вид битрейта                             : Постоянный
Битрейт                                  : 254 Кбит/сек
Каналы                                   : 2 канала
Расположение каналов                     : Front: L R
Частота                                  : 44,1 КГц
Метод сжатия                             : С потерями
Размер потока                            : 407 Мбайт (8%)
-Скриншоты:


[trackerock.ru].11881.torrent 
Торрент: Зарегистрирован   [ 2016-03-02 00:53 ]

Скачать торрент

13 KB

Статус: проверено
Скачан: 34 раз
Размер: 4.77 GB
 

Похожие торренты
Форум Тема Автор Размер
RPG Crypt of the Necrodancer (2014) [Ru/Multi] (1.27.9873/2.55/dlc) License GOG BiOS 3.19 GB
Инди игры The Fall v2.31 (2014) (RUS|ENG) RePack от R.G. Механики Admin 126 MB
Shooter Counter-Strike: Global Offensive v1.35.9.4 (2014) (ENG+RUS) Admin 5.93 GB
Shooter, шутеры, стрелялки Insurgency (2014) [Ru/Multi] (2.4.0.9) Repack Other s McAule 3.78 GB
Racing, гонки Turbo Dismount 1.26 (2014) (ENG) Admin 158 MB

_________________
[Профиль] [ЛС]
Показать сообщения:    
Ответить на тему

Текущее время: Сегодня 15:48

Часовой пояс: GMT + 4



Вы не можете начинать темы
Вы не можете отвечать на сообщения
Вы не можете редактировать свои сообщения
Вы не можете удалять свои сообщения
Вы не можете голосовать в опросах
Вы не можете прикреплять файлы к сообщениям
Вы можете скачивать файлы