Watch Dogs (2014) WEBRip [H.264/1080p-LQ]

Ответить на тему

Статистика раздачи [Обновить пиров]
Размер:  4.77 GB   |    Зарегистрирован:  9 месяцев 4 дня   |    Скачан:  1 раз

Полного источника не было: 1 месяц 6 дней

 
 
 
 
Автор Сообщение

BiOS ®

Стаж: 2 года 7 месяцев

Сообщений: 1730

Откуда: Raccoon City


Пост 02-Мар-2016 00:53

[Цитировать]

Watch Dogs - Жанр: Боевик, Игровой фильм
Описание:
Все друг с другом связаны. Мы зависим от новинок рынка высоких технологий, ведь лишь с их помощью узнаем, что происходит в мире. Но у прогресса есть и темная сторона. Каждое наше действие оставляет след: каждый наш шаг, каждая остановка, все, что нам нравится или не нравится. И дело не только в нас. Мегаполисы опутаны цифровыми сетями. Городская инфраструктура контролируется и управляется сложнейшими системами. В Watch_Dogs Чикаго подчиняется Центральной Операционной Системе (ctOS), именно она содержит информацию обо всех жителях. И тот, кто получит к ней доступ, получит контроль над городом. Эйден Пирс – выдающийся хакер с криминальным прошлым, чьи поступки стали причиной трагедии. Чтобы отомстить за свою семью, он выходит на тропу войны – и вы вместе с ним. Эйден способен взламывать и использовать все, что подключено к городской информационной сети – все, что его окружает. Доступ к камерам безопасности, загрузка персональных данных, отслеживание местонахождения людей, управление светофорами и общественным транспортом… Сам Чикаго станет вашим оружием. Вам лишь нужно научиться им пользоваться.
Продолжительность: 03:44:17
Качество видео: WEBRip
Перевод: Дублированный
Видео: AVC/H.264, 1920x1080, ~2784 Кбит/сек
Аудио: AAC, 2 ch, 254 Кбит/сек, CBR

Mediainfo:

Код:
Общее
Полное имя                               : X:\Films\Watch Dogs [игрофильм].mp4
Формат                                   : MPEG-4
Профиль формата                          : Base Media
Идентификатор кодека                     : isom
Размер файла                             : 4,77 Гбайт
Продолжительность                        : 3 ч. 44 м.
Общий поток                              : 3045 Кбит/сек
Программа кодирования                    : Lavf57.2.100
Видео
Идентификатор                            : 1
Формат                                   : AVC
Формат/Информация                        : Advanced Video Codec
Профиль формата                          : High@L4
Параметр CABAC формата                   : Да
Параметр ReFrames формата                : 3 кадра
Идентификатор кодека                     : avc1
Идентификатор кодека/Информация          : Advanced Video Coding
Продолжительность                        : 3 ч. 44 м.
Битрейт                                  : 2784 Кбит/сек
Ширина                                   : 1920 пикселей
Высота                                   : 1080 пикселей
Соотношение сторон                       : 16:9
Режим частоты кадров                     : Постоянный
Частота кадров                           : 25,000 кадров/сек
Цветовое пространство                    : YUV
Субдискретизация насыщенности            : 4:2:0
Битовая глубина                          : 8 бит
Тип развёртки                            : Прогрессивная
Бит/(Пиксели*Кадры)                      : 0.054
Размер потока                            : 4,36 Гбайт (91%)
Аудио
Идентификатор                            : 2
Формат                                   : AAC
Формат/Информация                        : Advanced Audio Codec
Профиль формата                          : LC
Идентификатор кодека                     : 40
Продолжительность                        : 3 ч. 44 м.
Вид битрейта                             : Постоянный
Битрейт                                  : 254 Кбит/сек
Каналы                                   : 2 канала
Расположение каналов                     : Front: L R
Частота                                  : 44,1 КГц
Метод сжатия                             : С потерями
Размер потока                            : 407 Мбайт (8%)
-Скриншоты:


[trackerock.ru].11881.torrent 
Торрент: Зарегистрирован   [ 2016-03-02 00:53 ]

Скачать торрент

13 KB

Статус: проверено
Скачан: 16 раз
Размер: 4.77 GB
 

Похожие торренты
Форум Тема Автор Размер
Фантастика Фэнтези Таймлесс 2: Сапфировая книга / Saphirblau (2014) BDRip [H.264] BiOS 2.18 GB
Квесты , я ищу , Поиск предметов Hidden Object Witches Legacy 4: The Ties That Bind CE / Наследие ведьм 4: Родственные узы КИ [P] [RUS / ENG] (2014) HOPE 1.1 GB
Квесты , я ищу , Поиск предметов Hidden Object Vacation Adventures. Cruise Director [P] [ENG] (2014) HOPE 188 MB
Strategy Стратегии Star Traders: 4X Empires [v2.6.29] [ENG] (2014) Admin 52 MB
Песочницы , Sandbox Minecraft 1.11 (2014) [ENG+RUS] Admin 444 MB

_________________
[Профиль] [ЛС]
Показать сообщения:    
Ответить на тему

Текущее время: Сегодня 16:03

Часовой пояс: GMT + 4



Вы не можете начинать темы
Вы не можете отвечать на сообщения
Вы не можете редактировать свои сообщения
Вы не можете удалять свои сообщения
Вы не можете голосовать в опросах
Вы не можете прикреплять файлы к сообщениям
Вы можете скачивать файлы