Я иду искать / Ready or Not (2019) BDRip [VO] скачать торрент

Reply to topic

DL-List and Torrent activity [Update пиров]
Size:  1.46 GB   |    Registered:  8 days   |    Completed:  0 times
Seeders:  7  [  5 KB/s  ]   Show peers in full details
 
 
 
 
Author Message

BiOS ®

Longevity: 5 years 7 months

Posts: 2373

Location: Earth


Post 29-Nov-2019 00:57

[Quote]

Я иду искать / Ready or Not
«The Game Begins»
- Производство: Канада, США / Mythology Entertainment, Vinson Films
Жанр: Триллер, комедия, ужасы, детектив
Режиссер: Мэттью Беттинелли, Тайлер Джиллетт
Актеры: Самара Уивинг, Адам Броди, Марк О`Брайэн, Генри Черни, Энди МакДауэлл, Мелани Скрофано, Кристиан Бруун, Никки Гуаданьи, Элиз Левеске, Джон Ралстон
Описание:
Молодая невеста — теперь часть семьи своего новоиспеченного мужа, богатого, но эксцентричного рода, чтящего вековые традиции. Кто бы мог подумать, что первая брачная ночь превратится в смертельную игру с новообретёнными родственниками, в которой девушке нужно будет очень постараться, чтобы дожить до рассвета.

Возраст: 18+ (зрителям, достигшим 18 лет. запрещено для детей)
Рейтинг MPAA: R (лицам до 17 лет обязательно присутствие взрослого)
Дата мировой премьеры: 27 июля 2019
Дата российской премьеры: 29 августа 2019
Продолжительность: 01:35:22
Качество видео: BDRip
Перевод: Любительский одноголосый, закадровый (Solod)
Субтитры: Отсутствуют
Видео: XviD, 720x304, ~1793 Kbps
Аудио: AC-3, 6 ch, 384 Kbps

MediaInfo:

Общее
Полное имя : Ready.or.Not.2019.BDRip.avi
Формат : AVI
Формат/Информация : Audio Video Interleave
Размер файла : 1,46 Гбайт
Продолжительность : 1 ч. 35 м.
Общий поток : 2186 Кбит/сек
Программа кодирования : VirtualDubMod 1.5.10.3 | www.virtualdub-fr.org || (build 2550/release)
Библиотека кодирования : VirtualDubMod build 2550/release
Видео
Идентификатор : 0
Формат : MPEG-4 Visual
Профиль формата : Advanced Simple@L5
Настройки формата : BVOP1 / Custom Matrix
Параметр BVOP формата : 1
Параметр QPel формата : Нет
Параметр GMC формата : Без точки перехода
Параметр матрицы формата : Выборочная
Идентификатор кодека : XVID
Идентификатор кодека/Подсказка : XviD
Продолжительность : 1 ч. 35 м.
Битрейт : 1793 Кбит/сек
Ширина : 720 пикселей
Высота : 304 пикселя
Соотношение сторон : 2,35:1
Частота кадров : 23,976 (24000/1001) кадра/сек
Цветовое пространство : YUV
Субдискретизация насыщенности : 4:2:0
Битовая глубина : 8 бит
Тип развёртки : Прогрессивная
Метод сжатия : С потерями
Бит/(Пиксели*Кадры) : 0.342
Размер потока : 1,19 Гбайт (82%)
Библиотека кодирования : XviD 73
Аудио
Идентификатор : 1
Формат : AC-3
Формат/Информация : Audio Coding 3
Коммерческое название : Dolby Digital
Идентификатор кодека : 2000
Продолжительность : 1 ч. 35 м.
Вид битрейта : Постоянный
Битрейт : 384 Кбит/сек
Каналы : 6 каналов
ChannelLayout : L R C LFE Ls Rs
Частота : 48,0 КГц
Частота кадров : 31,250 кадров/сек (1536 SPF)
Битовая глубина : 16 бит
Метод сжатия : С потерями
Размер потока : 262 Мбайт (18%)
Выравнивание : Разделение по промежуткам
Продолжительность промежутка : 42 мс. (1,00 видеокадр)
Время предзагрузки промежутка : 500 мс.
ServiceKind/String : Complete Main
-Скриншоты:


Смотреть онлайн


[trackeroc.org].29584.torrent 
Torrent: Registered   [ 2019-11-29 00:57 ]

Скачать торрент

15 KB

Status: checked
Completed: 6 times
Size: 1.46 GB
 

Admin (30-ноя-19)

_________________
[Profile] [PM]
Display posts from previous:    
Reply to topic

The time now is: Today 03:52

All times are GMT + 4 Hours



You cannot post new topics in this forum
You cannot reply to topics in this forum
You cannot edit your posts in this forum
You cannot delete your posts in this forum
You cannot vote in polls in this forum
You cannot attach files in this forum
You can download files in this forum