Я потеряла своё тело / J'ai perdu mon corps / I Lost My Body (2019) WEB-DL [H.264/1080p-LQ] (MVO) скачать торрент

Reply to topic

DL-List and Torrent activity [Update пиров]
Size:  1.78 GB   |    Registered:  2 months 12 days   |    Completed:  0 times
Seeders:  3  [  250 KB/s  ]   Show peers in full details
 
 
 
 
Author Message

BiOS ®

Longevity: 5 years 10 months

Posts: 2423

Location: Earth


Post 13-Dec-2019 08:06

[Quote]

Я потерял своё тело / J'ai perdu mon corps / I Lost My Body - Производство: Франция, Xilam
Жанр: Мультфильм, драма
Режиссер: Хаким Фарис
Описание:
История Науфеля, который влюблён в Габриэль. А в другой части города отрубленная рука убегает из лаборатории, решив снова найти своё тело.

Релиз от: NewStation
Продолжительность: ~01:21:00
Качество видео: WEB-DL
Перевод: Многоголосый любительский (NewStation)
Субтитры: русские, английские
Внимание! Присутствует ненормативная лексика.
Видео: AVC/H.264, 1920x1080, ~1870 Kbps
Аудио #1: AC3, 6 ch, 640 kbps, - Русский (MVO NewStation)
Аудио #2: AC3, 6 ch, 640 kbps, - Английский

MediaInfo:

Продолжительность                        : 1 ч. 21 м.
Режим общего битрейта : Переменный
Общий поток : 3132 Кбит/сек
Дата кодирования : UTC 2019-12-11 18:39:03
Программа кодирования : mkvmerge v28.1.0 ('Morning Child') 64-bit
Библиотека кодирования : libebml v1.3.6 + libmatroska v1.4.9
Видео
Идентификатор : 1
Формат : AVC
Формат/Информация : Advanced Video Codec
Профиль формата : Main@L4
Настройки формата : CABAC / 3 Ref Frames
Параметр CABAC формата : Да
Параметр RefFrames формата : 3 кадра
Идентификатор кодека : V_MPEG4/ISO/AVC
Продолжительность : 1 ч. 21 м.
Вид битрейта : Переменный
Битрейт : 1870 Кбит/сек
Максимальный битрейт : 2805 Кбит/сек
Ширина : 1920 пикселей
Высота : 1080 пикселей
Соотношение сторон : 16:9
Режим частоты кадров : Постоянный
Частота кадров : 24,000 кадра/сек
Цветовое пространство : YUV
Субдискретизация насыщенности : 4:2:0
Битовая глубина : 8 бит
Тип развёртки : Прогрессивная
Бит/(Пиксели*Кадры) : 0.038
Размер потока : 1,05 Гбайт (59%)
Библиотека кодирования : x264 core 148 r2715 7e75228
Настройки программы : cabac=1 / ref=3 / deblock=1:0:0 / analyse=0x1:0x111 / me=umh / subme=10 / psy=1 / psy_rd=1.00:0.00 / mixed_ref=1 / me_range=24 / chroma_me=1 / trellis=2 / 8x8dct=0 / cqm=0 / deadzone=21,11 / fast_pskip=1 / chroma_qp_offset=-2 / threads=8 / lookahead_threads=1 / sliced_threads=0 / nr=0 / decimate=1 / interlaced=0 / bluray_compat=0 / stitchable=1 / constrained_intra=0 / bframes=2 / b_pyramid=0 / b_adapt=2 / b_bias=0 / direct=3 / weightb=1 / open_gop=0 / weightp=2 / keyint=250 / keyint_min=24 / scenecut=0 / intra_refresh=0 / rc_lookahead=48 / rc=2pass / mbtree=1 / bitrate=1870 / ratetol=1.0 / qcomp=0.50 / qpmin=6 / qpmax=51 / qpstep=4 / cplxblur=20.0 / qblur=0.5 / vbv_maxrate=2805 / vbv_bufsize=3740 / nal_hrd=vbr / filler=0 / ip_ratio=1.40 / aq=1:1.00
Default : Да
Forced : Нет
Аудио #1
Идентификатор : 2
Формат : AC-3
Формат/Информация : Audio Coding 3
Идентификатор кодека : A_AC3
Продолжительность : 1 ч. 21 м.
Вид битрейта : Постоянный
Битрейт : 640 Кбит/сек
Каналы : 6 каналов
Расположение каналов : Front: L C R, Side: L R, LFE
Частота : 48,0 КГц
Частота кадров : 31,250 кадров/сек (1536 SPF)
Битовая глубина : 16 бит
Метод сжатия : С потерями
Размер потока : 372 Мбайт (20%)
Заголовок : NewStation
Язык : Russian
ServiceKind/String : Complete Main
Default : Да
Forced : Нет
Аудио #2
Идентификатор : 3
Формат : AC-3
Формат/Информация : Audio Coding 3
Идентификатор кодека : A_AC3
Продолжительность : 1 ч. 21 м.
Вид битрейта : Постоянный
Битрейт : 640 Кбит/сек
Каналы : 6 каналов
Расположение каналов : Front: L C R, Side: L R, LFE
Частота : 48,0 КГц
Частота кадров : 31,250 кадров/сек (1536 SPF)
Битовая глубина : 16 бит
Метод сжатия : С потерями
Размер потока : 372 Мбайт (20%)
Заголовок : En
Язык : English
ServiceKind/String : Complete Main
Default : Нет
Forced : Нет
Текст #1
Идентификатор : 4
Формат : UTF-8
Идентификатор кодека : S_TEXT/UTF8
Идентификатор кодека/Информация : UTF-8 Plain Text
Продолжительность : 1 ч. 20 м.
Битрейт : 39 бит/сек
ElementCount : 517
Размер потока : 23,1 Кбайт (0%)
Заголовок : Russian
Язык : Russian
Default : Нет
Forced : Нет
Текст #2
Идентификатор : 5
Формат : UTF-8
Идентификатор кодека : S_TEXT/UTF8
Идентификатор кодека/Информация : UTF-8 Plain Text
Продолжительность : 1 ч. 11 м.
Битрейт : 29 бит/сек
ElementCount : 503
Размер потока : 15,3 Кбайт (0%)
Заголовок : English
Язык : English
Default : Нет
Forced : Нет

Награды:

Каннский кинофестиваль, 2019 год Победитель (1): Награда от прессы
Каннский кинофестиваль, 2019 год Номинации (1): Золотая камера (награда за режиссерский дебют) (Жереми Клапен)
Европейская киноакадемия, 2019 год Лучший анимационный фильм
-Скриншоты:


Смотреть онлайн


[trackeroc.org].29646.torrent 
Torrent: Registered   [ 2019-12-13 08:06 ]

Скачать торрент

19 KB

Status: checked
Completed: 8 times
Size: 1.78 GB
 

Admin (13-дек-19)
Similar torrent
Forum Topic Author Size
Комедии Каждому своё / Everybody Wants Some [2016, США, Комедия, WEB-DLRip] Admin 1.47 GB

_________________
[Profile] [PM]
Display posts from previous:    
Reply to topic

The time now is: Today 10:01

All times are GMT + 4 Hours



You cannot post new topics in this forum
You cannot reply to topics in this forum
You cannot edit your posts in this forum
You cannot delete your posts in this forum
You cannot vote in polls in this forum
You cannot attach files in this forum
You can download files in this forum