Я зомби / iZombie / Сезон: 2 / Серии: 1-15 из 19

Ответить на тему

Статистика раздачи [Обновить пиров]
Размер:  7.93 GB   |    Зарегистрирован:  8 месяцев 12 дней   |    Скачан:  0 раз

Полного источника не было: Никогда

 
 
 
 
Автор Сообщение

Admin ®

Стаж: 7 месяцев 12 дней

Сообщений: 4451

Откуда: trackeroc.ru


Пост 08-Окт-2015 13:53

[Цитировать]

--- Я - Зомби -i Zombie-- Год выпуска: 2015
Страна: США
Жанр: ужасы, фантастика, драма, криминал
Продолжительность: 43 мин.
Перевод: Профессиональный (многоголосый закадровый) - Baibako
Субтитры: нет-Режиссёр: Роб Томас, Майрзи Алмас
В ролях: Роуз МакИвер, Малкольм Гудвин, Рахул Коли, Молли Хэйгэн, Ник Пурча, Элиз Гэтьен-Описание: В центре сюжета — студентка медицинского факультета Оливия «Лив» Мур, для которой последствия одной из вечеринок стали переломным моментом в жизни, превратившим её в зомби. Жизнерадостная, активная и пышущая здоровьем раньше, теперь Лив похожа на представителя готов — с бледной кожей, тёмными кругами вокруг глаз и почти белыми волосами. Она устраивается на работу в офис коронера, доктора Рави Чакрабарти, чтобы иметь доступ к мозгам, которые ей приходиться есть, чтобы поддерживать свою человеческую сущность. Однако с каждым съеденным ею мозгом она наследует воспоминания трупа. С помощью босса доктора Чакрабарти, узнавшего её секрет, и детектива полиции Клайва Бабино Лив способна разгадывать убийства тех людей, чей мозг она съела.-Релиз группы
Перевод: Алексей Матвеев-Качество: WEB-DL 720p
Контейнер: MKV
Видео кодек: H.264
Аудио кодек: AC3
Видео: 1280x718 (16:9), 23.976 fps, 3866 Kbps, 0.174 bit/pixel
Аудио #1: 48 kHz, 6 ch, ~384.00 kbps | Russian | NewStudio
Аудио #2: 48 kHz, 6 ch, ~384.00 kbps | English | Original
Субтитры: отсутствуют-

Скриншоты

soon
-

MediaInfo

ОбщееУникальный идентификатор : 230815513872334675149340165295996114319 (0xADA5737365EBA746871EB6F1CBD7958F)Формат : MatroskaВерсия формата : Version 4 / Version 2Размер файла : 1,40 ГбайтПродолжительность : 42 м.Общий поток : 4705 Кбит/секДата кодирования : UTC 2015-10-07 23:47:02Программа кодирования : mkvmerge v8.2.0 ('World of Adventure') 32bitБиблиотека кодирования : libebml v1.3.1 + libmatroska v1.4.2DURATION : 00:42:28.096000000NUMBER_OF_FRAMES : 79628NUMBER_OF_BYTES : 122308608_STATISTICS_WRITING_APP : mkvmerge v8.2.0 ('World of Adventure') 32bit_STATISTICS_WRITING_DATE_UTC : 2015-10-07 23:47:02_STATISTICS_TAGS : BPS DURATION NUMBER_OF_FRAMES NUMBER_OF_BYTES
ВидеоИдентификатор : 1Формат : AVCФормат/Информация : Advanced Video CodecПрофиль формата : High@L3.1Параметр CABAC формата : НетПараметр ReFrames формата : 2 кадраИдентификатор кодека : V_MPEG4/ISO/AVCПродолжительность : 42 м.Битрейт : 3843 Кбит/секШирина : 1280 пикселейВысота : 718 пикселейСоотношение сторон : 16:9Режим частоты кадров : ПостоянныйЧастота кадров : 23,976 кадра/секЦветовое пространство : YUVСубдискретизация насыщенности : 4:2:0Битовая глубина : 8 битТип развёртки : ПрогрессивнаяБит/(Пиксели*Кадры) : 0.174Размер потока : 1,14 Гбайт (82%)Язык : EnglishDefault : ДаForced : НетОсновные цвета : BT.709Характеристики трансфера : BT.709Коэффициенты матрицы : BT.709
Аудио #1Идентификатор : 2Формат : AC-3Формат/Информация : Audio Coding 3Расширение режима : CM (complete main)Параметр Endianness формата : BigИдентификатор кодека : A_AC3Продолжительность : 42 м.Вид битрейта : ПостоянныйБитрейт : 384 Кбит/секКаналы : 6 каналовРасположение каналов : Front: L C R, Side: L R, LFEЧастота : 48,0 КГцБитовая глубина : 16 битМетод сжатия : С потерямиРазмер потока : 117 Мбайт (8%)Заголовок : NewStudio.TVЯзык : RussianDefault : ДаForced : Нет
Аудио #2Идентификатор : 3Формат : AC-3Формат/Информация : Audio Coding 3Расширение режима : CM (complete main)Параметр Endianness формата : BigИдентификатор кодека : A_AC3Продолжительность : 42 м.Вид битрейта : ПостоянныйБитрейт : 384 Кбит/секКаналы : 6 каналовРасположение каналов : Front: L C R, Side: L R, LFEЧастота : 48,0 КГцБитовая глубина : 16 битМетод сжатия : С потерямиРазмер потока : 117 Мбайт (8%)Язык : EnglishDefault : НетForced : Нет
-

Внимание! Раздача ведётся путём добавления новых серий.

Внимание! Раздача ведётся путём добавления новых серий; при каждом добавлении создётся новый торрент. Чтобы начать докачку новой серии, пользователям необходимо сделать следующее:
(1) остановить скачивание,
(2) удалить старый торрент у себя из клиента (старые серии удалять не надо),
(3) скачать новый торрент и запустить его у себя в клиенте вместо старого, при этом указать клиенту путь в старую папку куда и должно происходить скачивание новых серий.
Ваш клиент при этом должен произвести хеширование (проверку) старой папки (если не производит сам - помогите ему сделать это), и будет докачивать только те серии которых у вас ещё нет. Старые серии при этом не удаляются, а продолжают раздаваться!
Eсли вы уже удалили старые серии, то предотвратить повторную закачку старых серий можно, отжав галочку в соответсвующих местах при запуске нового торрента. По возможности, желательно не удалять старые серии как можно дольше чтобы релизёр не столько продолжал раздавать старые серии, а смог сконцентрироваться на новых.


Смотреть онлайн

[trackerock.ru].8511.torrent 
Торрент: Зарегистрирован   [ 2016-03-25 18:20 ]

Скачать торрент

41 KB

Статус: * не проверено
Скачан: 5 раз
Размер: 7.93 GB
 

Похожие торренты
Форум Тема Автор Размер
Ужасы мистика триллеры Гордость и предубеждение и зомби / Pride and Prejudice and Zombies (2016) WEBRip [H.264/720p-LQ] BiOS 2.24 GB
Боевики Зомби-ниндзя против спецназа / Zombie Ninjas vs Black Ops (2015) DVDRip Admin 1.42 GB
Ужасы мистика триллеры Морские котики против зомби / Navy SEALs vs. Zombies (2015) HDRip Admin 1.45 GB
Ужасы мистика триллеры Социалистическая резня зомби / Socialisticky Zombi Mord (2014) DVDRip Admin 1.37 GB

_________________
[Профиль] [ЛС]
Показать сообщения:    
Ответить на тему

Текущее время: Сегодня 18:17

Часовой пояс: GMT + 4



Вы не можете начинать темы
Вы не можете отвечать на сообщения
Вы не можете редактировать свои сообщения
Вы не можете удалять свои сообщения
Вы не можете голосовать в опросах
Вы не можете прикреплять файлы к сообщениям
Вы можете скачивать файлы