Явление / Emergence (2019) WEB-DL (сезон 1, серии 1-9 из 10) TVShows скачать торрент

Reply to topic

DL-List and Torrent activity [Update пиров]
Size:  14.49 GB   |    Registered:  1 month 5 days   |    Completed:  0 times

Seeder not seen: Never

Leechers:  1  [  1 MB/s  ]   Show peers in full details
 
 
 
 
 
Author Message

BiOS ®

Longevity: 5 years 9 months

Posts: 2407

Location: Earth


Post 10-Oct-2019 10:14

[Quote]

Явление / Emergence
«Protecting her secret is just the beginning»
- Производство: США / ABC Studios, Fazekas & Butters
Жанр: Драма, Детектив, Фантастика, Мистика
Режиссер: Питер Лето, Пол МакГиган, Алекс Пиллаи
Актеры: Роберт Бэйли мл., Клэнси Браун, Алекса Суинтон, Эллисон Толман, Эшли Ауфдерхайд, Макс Крумм, Йен Кэмпбелл Данн, Куинси Данн-Бэйкер, Дональд Фэйзон, Забрина Гевара, Овайн Йомэн
Описание:
Шеф полиции небольшого городка усыновила маленькую девочку с амнезией. Однако, когда приёмная мать решает погрузиться в прошлое загадочного ребёнка, то узнает шокирующие подробности.

Дата мировой премьеры: 24.09.2019
Продолжительность: ~00:45:00 серия
Качество видео: WEB-DL
Перевод: Многоголосый профессиональный - TVShows
Видео: MPEG-4 AVC, 1280x720, ~4335 Kбит/с
Аудио 1: AC3, 6 ch, 384 Кбит/с — русский
Аудио 2: E-AC3, 6 ch, 640 Кбит/с — английский

MediaInfo:

General
Unique ID : 92147972443251348667823136323088006780 (0x45530DCF4B382A30ADCD397B016DBE7C)
Complete name : Emergence.S01E01.720p.TVShows.mkv
Format : Matroska
Format version : Version 4 / Version 2
File size : 1.59 GiB
Duration : 42mn 26s
Overall bit rate : 5 362 Kbps
Encoded date : UTC 2019-09-27 13:54:40
Writing application : mkvmerge v33.1.0 ('Primrose') 64-bit
Writing library : libebml v1.3.7 + libmatroska v1.5.0
Video #1
ID : 1
Format : AVC
Format/Info : Advanced Video Codec
Format profile : High@L3.1
Format settings, CABAC : Yes
Format settings, ReFrames : 4 frames
Codec ID : V_MPEG4/ISO/AVC
Duration : 42mn 26s
Bit rate mode : Constant
Bit rate : 4 231 Kbps
Nominal bit rate : 6 000 Kbps
Width : 1 280 pixels
Height : 720 pixels
Display aspect ratio : 16:9
Frame rate : 23.976 fps
Color space : YUV
Chroma subsampling : 4:2:0
Bit depth : 8 bits
Scan type : Progressive
Bits/(Pixel*Frame) : 0.191
Stream size : 1.25 GiB (79%)
Default : Yes
Forced : No
Color primaries : BT.709-5, BT.1361, IEC 61966-2-4, SMPTE RP177
Transfer characteristics : BT.709-5, BT.1361
Matrix coefficients : BT.709-5, BT.1361, IEC 61966-2-4 709, SMPTE RP177
Audio #2
ID : 2
Format : AC-3
Format/Info : Audio Coding 3
Mode extension : CM (complete main)
Format settings, Endianness : Big
Codec ID : A_AC3
Duration : 42mn 26s
Bit rate mode : Constant
Bit rate : 384 Kbps
Channel(s) : 6 channels
Channel positions : Front: L C R, Side: L R, LFE
Sampling rate : 48.0 KHz
Bit depth : 16 bits
Compression mode : Lossy
Stream size : 117 MiB (7%)
Title : TVShows
Language : Russian
Default : Yes
Forced : Yes
Audio #3
ID : 3
Format : E-AC-3
Format/Info : Audio Coding 3
Format settings, Endianness : Big
Codec ID : A_EAC3
Duration : 42mn 26s
Bit rate mode : Constant
Bit rate : 640 Kbps
Channel(s) : 6 channels
Channel positions : Front: L C R, Side: L R, LFE
Sampling rate : 48.0 KHz
Compression mode : Lossy
Stream size : 194 MiB (12%)
Title : Original
Language : English
Default : No
Forced : No
Text #4
ID : 4
Format : UTF-8
Codec ID : S_TEXT/UTF8
Codec ID/Info : UTF-8 Plain Text
Title : English
Language : English
Default : No
Forced : No
-Скриншоты:


Смотреть онлайн


[trackeroc.org].29312.torrent 
Torrent: Registered   [ 2019-12-21 10:01 ]

Скачать торрент

74 KB

Status: T temporary
Completed: 15 times
Size: 14.49 GB
 

Admin (10-окт-19)
Similar torrent
Forum Topic Author Size
Strategy, Стратегии Particle Fleet: Emergence [1.1.4] (2016) (ENG) Admin 368 MB
Ужасы ,мистика ,триллеры Паранормальное явление 5: Призраки в 3D / Paranormal Activity: The Ghost Dimension (2015) HDRip | Чистый звук Admin 1.46 GB
Квесты, я ищу, Поиск предметов, Hidden Object Сумрачное явление: Невероятное шоу./Twilight Phenomena: The Incredible Show Collector's Edition (2015) (Nevosoft) (RUS) [P] HOPE 765 MB
Квесты, я ищу, Поиск предметов, Hidden Object Twilight Phenomena 3: The Incredible Show Collectors Edition/Сумрачное явление 3: Невероятное шоу (2015) (Big Fish Games) (RUS) [P] HOPE 937 MB

_________________
[Profile] [PM]
Display posts from previous:    
Reply to topic

The time now is: Today 21:05

All times are GMT + 4 Hours



You cannot post new topics in this forum
You cannot reply to topics in this forum
You cannot edit your posts in this forum
You cannot delete your posts in this forum
You cannot vote in polls in this forum
You cannot attach files in this forum
You can download files in this forum