Юху и его друзья / YooHoo & Friends [Серии: 1-47] [Южная Корея, 2009, Мультсериал, детский, SATRip] Dub

Ответить на тему

Статистика раздачи [Обновить пиров]
Размер:  8.13 GB   |    Зарегистрирован:  1 год   |    Скачан:  5 раз

Полного источника не было: 1 месяц 8 дней

Личеров:  1  [  0 KB/s  ]   Подробная статистика пиров
 
 
 
 
Автор Сообщение

BiOS ®

Стаж: 2 года 7 месяцев

Сообщений: 1732

Откуда: Raccoon City


Пост 11-Ноя-2015 02:10

[Цитировать]

- Юху и его друзья / YooHoo & Friends -- Год выпуска: 2009
Страна: Южная Корея
Жанр: Мультсериал, детский
Продолжительность: 47 х ~ 00:14:34
Перевод: Профессиональный (дублированный)

Субтитры: Отсутствуют--Описание: Обезьянка галаго Юху, лисичка фенек Памми, обезьянка капуцин Роди, белка Чеву и лемур Лемми - маленькие дружные зверята. Они наслаждались спокойной жизнью, но из-за проблем с окружающей средой их мир оказался под угрозой исчезновения. Пятеро друзей вынуждены были отправиться в большое путешествие за волшебными семенами Дерева Жизни. В пути им предстоит познакомиться со многими новыми друзьями и пережить много увлекательных приключений.--Качество: SATRip
Формат: AVI
Видео: XviD, 1500 Кбит/сек, 720х400, 16:9, 25,000 кадров/сек, 8 бит, 0.208 Бит/Пиксел
Аудио: AC-3, 192 Кбит/сек, 2 канала, Front: L R, 48,0 КГц, 16 бит

Список серий

01. Исчезнувшая Ютопия
02. Чиву не птенец
03. Тайна баобаба
04. Кто найдёт воду первым
05. Поймай зелёное семечко
06. Братья сурикаты
07. Летучие мыши вампиры
08. Пустынный рай. Часть 1
09. Пустынный рай. Часть 2
10. Загадки пирамиды
11. Найти долину эльфов
12. Братьев сурикатов не остановить
13. Похищенная энциклопедия
14. Музыкант Руни
15. Щёголь Либи
16. Чей это мешочек?
17. Тайные пещеры Альтамира
18. Поиски радужной гальки
19. Младший сурикат — друг Чиву
20. Спящая Памми
21. Над горами Алтая
22. Панда Лин-Лин. Часть 1
23. Панда Лин-Лин. Часть 2
24. Поддельный медитатор
25. Руди покидает группу
26. Сурикат - великий изобретатель
27. Пора посидеть с младенцем
28. Джордж - болтун
29. В поисках невидимого острова
30. В плену у павиана
31. Другой рай
32. Секрет земного рая
33. Два семени
34. Куки — пингвин Антарктиды
35. Уловка сурикатов
36. Состязания в Мачо Пикчо
37. Очки для очкового медведя
38. До свидания, розовый дельфин
39. Подводная лодка Руди
40. Кактусовая пустыня
41. Берегись. Сильный жар
42. Утрата мешочка для семечек
43. До встречи, братья сурикаты
44. Братья бобры
45. Лемми, спаси нас!
46. На северный полюс
47. Домой в Ютопию

Mediainfo

Код:
Общее
Полное имя : Юху и его друзья.2009.XviD.SATRip.Thunder\01. Исчезнувшая Ютопия.avi
Формат : AVI
Формат/Информация : Audio Video Interleave
Размер файла : 177 Мбайт
Продолжительность : 14 м.
Общий поток : 1701 Кбит/сек
Режиссёр : SATRip by Thunder
Программа кодирования : VirtualDubMod 1.5.10.3 | www.virtualdub-fr.org || (build 2550/release)
Формат оригинала/Имя : Cartoon
Видео
Идентификатор : 0
Формат : MPEG-4 Visual
Профиль формата : Advanced Simple@L5
Параметр BVOP формата : 2
Параметр QPel формата : Нет
Параметр GMC формата : Без точки перехода
Параметр матрицы формата : Default (H.263)
Идентификатор кодека : XVID
Идентификатор кодека/Подсказка : XviD
Продолжительность : 14 м.
Битрейт : 1500 Кбит/сек
Ширина : 720 пикселей
Высота : 400 пикселей
Соотношение сторон : 16:9
Частота кадров : 25,000 кадров/сек
Цветовое пространство : YUV
Субдискретизация насыщенности : 4:2:0
Битовая глубина : 8 бит
Тип развёртки : Прогрессивная
Метод сжатия : С потерями
Бит/(Пиксели*Кадры) : 0.208
Размер потока : 156 Мбайт (88%)
Библиотека кодирования : XviD 1.2.1 (UTC 2008-12-04)
Аудио
Идентификатор : 1
Формат : AC-3
Формат/Информация : Audio Coding 3
Расширение режима : CM (complete main)
Параметр Endianness формата : Big
Идентификатор кодека : 2000
Продолжительность : 14 м.
Вид битрейта : Постоянный
Битрейт : 192 Кбит/сек
Каналы : 2 канала
Расположение каналов : Front: L R
Частота : 48,0 КГц
Битовая глубина : 16 бит
Метод сжатия : С потерями
Размер потока : 20,0 Мбайт (11%)
Выравнивание : Разделение по промежуткам
Продолжительность промежутка : 40 мс. (1,00 видеокадр)
Время предзагрузки промежутка : 500 мс.
Скриншоты:


Смотреть онлайн

[trackeroc.ru].9657.torrent 
 СЕРЕБРЯНАЯ РАЗДАЧА! СКАЧАННОЕ ЗАСЧИТЫВАЕТСЯ ТОЛЬКО НАПОЛОВИНУ! 
Торрент: Зарегистрирован   [ 2015-11-11 02:10 ]

Скачать торрент

16 KB

Статус: проверено
Скачан: 69 раз
Размер: 8.13 GB
 

Admin (11-ноя-15)

_________________
[Профиль] [ЛС]
Показать сообщения:    
Ответить на тему

Текущее время: Сегодня 18:17

Часовой пояс: GMT + 4



Вы не можете начинать темы
Вы не можете отвечать на сообщения
Вы не можете редактировать свои сообщения
Вы не можете удалять свои сообщения
Вы не можете голосовать в опросах
Вы не можете прикреплять файлы к сообщениям
Вы можете скачивать файлы