Юрий Хой и Сектор Газа - Вой на Луну. Лучшее и неизданное (2015) 2CD [FLAC|image + .cue] <Fusion / Punk-Rock / Rapcore / Hard Rock>

Ответить на тему

Статистика раздачи [Обновить пиров]
Размер:  702 MB   |    Зарегистрирован:  1 год   |    Скачан:  5 раз

Полного источника не было: 1 час

 
 
 
 
Автор Сообщение

BiOS ®

Стаж: 2 года 7 месяцев

Сообщений: 1738

Откуда: Raccoon City


Пост 16-Ноя-2015 06:04

[Цитировать]

Юрий Хой и Сектор Газа - Вой на луну. Лучшее и неизданное (2015) - Год: 2015
Жанр: Fusion / Punk-Rock / Rapcore / Hard Rock
Издание: Warner Music - GL-10836
Продолжительность: 01:50:16
Источник: logikal
Кодек: FLAC
Битрейт: Lossless
Тип раздачи: image + .cue
Наличие сканов: Да
Описание: Раннее сольное творчество лидера известной российской рок-группы "Сектор Газа" Юрия Хоя (Клинских) впервые издано официально: песни, записанные Юрием Хоем за 6 лет до образования в 1987 году "Сектор Газа" впервые увидят свет. Первая часть с ранними песнями Хоя будет дополнена компиляцией из лучших песен "Сектор Газа" - последний сборник группы выходил 12 лет назад.

CD 1&#58;

Треклист:
01. Вступление (1981)
02. Без вина (1981)
03. Подруга шестиструнная
04. Про лето
05. Милая
06. Первая любовь
07. Проходят годы словно миг
08. Про мальчишку
09. Вой на луну
10. Людмила
11. Он так ее любил
12. Вампиры (1985)
13. Заключительная
Продолжительноcть: 00:43:50

Отчет EAC&#58;

Код:
Exact Audio Copy V1.0 beta 4 from 7. December 2014
EAC extraction logfile from 15. November 2015, 15:09
Юрий Хой и группа Сектор Газа / Вой на луну (CD1)
Used drive  : Optiarc DVD RW AD-7585H   Adapter: 0  ID: 1
Read mode               : Secure
Utilize accurate stream : Yes
Defeat audio cache      : Yes
Make use of C2 pointers : No
Read offset correction                      : 6
Overread into Lead-In and Lead-Out          : No
Fill up missing offset samples with silence : Yes
Delete leading and trailing silent blocks   : No
Null samples used in CRC calculations       : Yes
Used interface                              : Installed external ASPI interface
Used output format              : User Defined Encoder
Selected bitrate                : 128 kBit/s
Quality                         : High
Add ID3 tag                     : No
Command line compressor         : C:\Program Files\FLAC\flac.exe
Additional command line options : -V -8 -T "Date=%year%" -T "Genre=%genre%" %source%
TOC of the extracted CD
     Track |   Start  |  Length  | Start sector | End sector
    ---------------------------------------------------------
        1  |  0:00.00 |  1:08.54 |         0    |     5153
        2  |  1:08.54 |  3:40.24 |      5154    |    21677
        3  |  4:49.03 |  4:13.42 |     21678    |    40694
        4  |  9:02.45 |  2:45.26 |     40695    |    53095
        5  | 11:47.71 |  4:09.25 |     53096    |    71795
        6  | 15:57.21 |  2:21.10 |     71796    |    82380
        7  | 18:18.31 |  4:15.24 |     82381    |   101529
        8  | 22:33.55 |  4:25.47 |    101530    |   121451
        9  | 26:59.27 |  4:25.65 |    121452    |   141391
       10  | 31:25.17 |  4:48.59 |    141392    |   163050
       11  | 36:14.01 |  2:35.54 |    163051    |   174729
       12  | 38:49.55 |  2:26.10 |    174730    |   185689
       13  | 41:15.65 |  2:33.57 |    185690    |   197221
Range status and errors
Selected range
     Filename D:\Music\2015 - Юрий Хой и группа Сектор Газа - Вой на луну (2CD) (Warner Music Russia GL-10836 СОНИ ДАДС РФ 2015)\Диск 1\Юрий Хой и группа Сектор Газа - Вой на луну (CD1).wav
     Peak level 99.7 %
     Extraction speed 1.8 X
     Range quality 100.0 %
     Test CRC 4E318EE9
     Copy CRC 4E318EE9
     Copy OK
No errors occurred
AccurateRip summary
Track  1  not present in database
Track  2  not present in database
Track  3  not present in database
Track  4  not present in database
Track  5  not present in database
Track  6  not present in database
Track  7  not present in database
Track  8  not present in database
Track  9  not present in database
Track 10  not present in database
Track 11  not present in database
Track 12  not present in database
Track 13  not present in database
None of the tracks are present in the AccurateRip database
End of status report
---- CUETools DB Plugin V2.1.4
[CTDB TOCID: f4n2IJZusaVaUdG_tnLlZMfVXXg-] disk not present in database
Submit result: f4n2IJZusaVaUdG_tnLlZMfVXXg- has been uploaded
==== Log checksum 1DFA2D9F18AF7DF032E9FFD006B0ABBAF057F401B1C3BC4E22CABA846551F256 ====

Отчет auCDtect Task manager&#58;

Код:
-----------------------
DON'T MODIFY THIS FILE
-----------------------
PERFORMER: auCDtect Task Manager, ver. 1.6.0 RC1 build 1.6.0.1
Copyright (c) 2008-2010 y-soft. All rights reserved
http://y-soft.org
ANALYZER: auCDtect: CD records authenticity detector, version 0.8.2
Copyright (c) 2004 Oleg Berngardt. All rights reserved.
Copyright (c) 2004 Alexander Djourik. All rights reserved.
FILE: Юрий Хой и группа Сектор Газа - Вой на луну (CD1).flac
  Size: 266658874 Hash: 535BF5F7A72A2AF2DBB8E6D8F613E617 Accuracy: -m0
  Conclusion: CDDA 99%
  Signature: 1FA3F55CC822422337F8908DC63C0F94F0DAAA81

Отчет .CUE&#58;

Код:
REM GENRE "Punk Rock"
REM DATE 2015
REM DISCID A80A450D
REM COMMENT "ExactAudioCopy v1.0b4"
PERFORMER "Юрий Хой и группа Сектор Газа"
TITLE "Вой на луну (CD1)"
FILE "Юрий Хой и группа Сектор Газа - Вой на луну (CD1).flac" WAVE
  TRACK 01 AUDIO
    TITLE "Вступление"
    PERFORMER "Юрий Хой и группа Сектор Газа"
    INDEX 01 00:00:00
  TRACK 02 AUDIO
    TITLE "Без вина (1981)"
    PERFORMER "Юрий Хой и группа Сектор Газа"
    INDEX 00 01:06:54
    INDEX 01 01:08:54
  TRACK 03 AUDIO
    TITLE "Подруга шестиструнная"
    PERFORMER "Юрий Хой и группа Сектор Газа"
    INDEX 00 04:47:03
    INDEX 01 04:49:03
  TRACK 04 AUDIO
    TITLE "Про лето"
    PERFORMER "Юрий Хой и группа Сектор Газа"
    INDEX 00 09:00:45
    INDEX 01 09:02:45
  TRACK 05 AUDIO
    TITLE "Милая"
    PERFORMER "Юрий Хой и группа Сектор Газа"
    INDEX 00 11:45:71
    INDEX 01 11:47:71
  TRACK 06 AUDIO
    TITLE "Первая любовь"
    PERFORMER "Юрий Хой и группа Сектор Газа"
    INDEX 00 15:55:21
    INDEX 01 15:57:21
  TRACK 07 AUDIO
    TITLE "Проходят годы словно миг"
    PERFORMER "Юрий Хой и группа Сектор Газа"
    INDEX 00 18:16:31
    INDEX 01 18:18:31
  TRACK 08 AUDIO
    TITLE "Про мальчишку"
    PERFORMER "Юрий Хой и группа Сектор Газа"
    INDEX 00 22:31:55
    INDEX 01 22:33:55
  TRACK 09 AUDIO
    TITLE "Вой на луну"
    PERFORMER "Юрий Хой и группа Сектор Газа"
    INDEX 00 26:57:27
    INDEX 01 26:59:27
  TRACK 10 AUDIO
    TITLE "Людмила"
    PERFORMER "Юрий Хой и группа Сектор Газа"
    INDEX 00 31:23:17
    INDEX 01 31:25:17
  TRACK 11 AUDIO
    TITLE "Он так её любил"
    PERFORMER "Юрий Хой и группа Сектор Газа"
    INDEX 00 36:12:01
    INDEX 01 36:14:01
  TRACK 12 AUDIO
    TITLE "Вампиры (1985)"
    PERFORMER "Юрий Хой и группа Сектор Газа"
    INDEX 00 38:47:55
    INDEX 01 38:49:55
  TRACK 13 AUDIO
    TITLE "Заключительная"
    PERFORMER "Юрий Хой и группа Сектор Газа"
    INDEX 00 41:13:65
    INDEX 01 41:15:65

CD 2&#58;

Треклист:
01. 30 лет
02. Туман
03. Пора домой
04. Лирика
05. Демобилизация
06. Твой звонок
07. Бомж
08. Взял вину на себя
09. Ночь перед Рождеством
10. Life
11. Вечером на лавочке
12. Возле дома твоего
13. Колхозный панк
14. Ява
15. Казачья
16. Вальпургиева ночь
17. Тёща
Продолжительноcть: 01:06:26

Отчет EAC&#58;

Код:
Exact Audio Copy V1.0 beta 4 from 7. December 2014
EAC extraction logfile from 15. November 2015, 16:41
Юрий Хой и группа Сектор Газа / Вой на луну (CD2)
Used drive  : Optiarc DVD RW AD-7585H   Adapter: 0  ID: 1
Read mode               : Secure
Utilize accurate stream : Yes
Defeat audio cache      : Yes
Make use of C2 pointers : No
Read offset correction                      : 6
Overread into Lead-In and Lead-Out          : No
Fill up missing offset samples with silence : Yes
Delete leading and trailing silent blocks   : No
Null samples used in CRC calculations       : Yes
Used interface                              : Installed external ASPI interface
Used output format              : User Defined Encoder
Selected bitrate                : 128 kBit/s
Quality                         : High
Add ID3 tag                     : No
Command line compressor         : C:\Program Files\FLAC\flac.exe
Additional command line options : -V -8 -T "Date=%year%" -T "Genre=%genre%" %source%
TOC of the extracted CD
     Track |   Start  |  Length  | Start sector | End sector
    ---------------------------------------------------------
        1  |  0:00.00 |  4:11.15 |         0    |    18839
        2  |  4:11.15 |  3:45.63 |     18840    |    35777
        3  |  7:57.03 |  3:56.40 |     35778    |    53517
        4  | 11:53.43 |  4:22.30 |     53518    |    73197
        5  | 16:15.73 |  3:56.21 |     73198    |    90918
        6  | 20:12.19 |  5:08.52 |     90919    |   114070
        7  | 25:20.71 |  3:35.01 |    114071    |   130196
        8  | 28:55.72 |  3:16.60 |    130197    |   144956
        9  | 32:12.57 |  4:31.20 |    144957    |   165301
       10  | 36:44.02 |  3:28.10 |    165302    |   180911
       11  | 40:12.12 |  4:09.25 |    180912    |   199611
       12  | 44:21.37 |  3:07.45 |    199612    |   213681
       13  | 47:29.07 |  3:39.55 |    213682    |   230161
       14  | 51:08.62 |  4:39.47 |    230162    |   251133
       15  | 55:48.34 |  2:49.40 |    251134    |   263848
       16  | 58:37.74 |  3:57.50 |    263849    |   281673
       17  | 62:35.49 |  3:50.18 |    281674    |   298941
Range status and errors
Selected range
     Filename D:\Music\2015 - Юрий Хой и группа Сектор Газа - Вой на луну (2CD) (Warner Music Russia GL-10836 СОНИ ДАДС РФ 2015)\Диск 2\Юрий Хой и группа Сектор Газа - Вой на луну (CD2).wav
     Peak level 100.0 %
     Extraction speed 2.0 X
     Range quality 100.0 %
     Test CRC 4CCDD4C3
     Copy CRC 4CCDD4C3
     Copy OK
No errors occurred
AccurateRip summary
Track  1  not present in database
Track  2  not present in database
Track  3  not present in database
Track  4  not present in database
Track  5  not present in database
Track  6  not present in database
Track  7  not present in database
Track  8  not present in database
Track  9  not present in database
Track 10  not present in database
Track 11  not present in database
Track 12  not present in database
Track 13  not present in database
Track 14  not present in database
Track 15  not present in database
Track 16  not present in database
Track 17  not present in database
None of the tracks are present in the AccurateRip database
End of status report
---- CUETools DB Plugin V2.1.4
[CTDB TOCID: Z7xn6Lv_LCtBpgv0W2XW7l.Pf2Y-] disk not present in database
Submit result: Z7xn6Lv_LCtBpgv0W2XW7l.Pf2Y- has been uploaded
==== Log checksum 47CEBECD82567AC16F983D737017904BD45830C25CEEEC3791B112967DECCC9B ====

Отчет auCDtect Task manager&#58;

Код:
-----------------------
DON'T MODIFY THIS FILE
-----------------------
PERFORMER: auCDtect Task Manager, ver. 1.6.0 RC1 build 1.6.0.1
Copyright (c) 2008-2010 y-soft. All rights reserved
http://y-soft.org
ANALYZER: auCDtect: CD records authenticity detector, version 0.8.2
Copyright (c) 2004 Oleg Berngardt. All rights reserved.
Copyright (c) 2004 Alexander Djourik. All rights reserved.
FILE: Юрий Хой и группа Сектор Газа - Вой на луну (CD2).flac
  Size: 457130271 Hash: 66CF6B3078635C324AB63421F0E95C02 Accuracy: -m0
  Conclusion: CDDA 100%
  Signature: DE8BFF885A18660CCC56EA6A94AAC59D4F103B04

Отчет .CUE&#58;

Код:
REM GENRE "Punk Rock"
REM DATE 2015
REM DISCID EC0F9111
REM COMMENT "ExactAudioCopy v1.0b4"
PERFORMER "Юрий Хой и группа Сектор Газа"
TITLE "Вой на луну (CD2)"
FILE "Юрий Хой и группа Сектор Газа - Вой на луну (CD2).flac" WAVE
  TRACK 01 AUDIO
    TITLE "30 лет"
    PERFORMER "Юрий Хой и группа Сектор Газа"
    INDEX 01 00:00:00
  TRACK 02 AUDIO
    TITLE "Туман"
    PERFORMER "Юрий Хой и группа Сектор Газа"
    INDEX 00 04:09:15
    INDEX 01 04:11:15
  TRACK 03 AUDIO
    TITLE "Пора домой"
    PERFORMER "Юрий Хой и группа Сектор Газа"
    INDEX 00 07:55:03
    INDEX 01 07:57:03
  TRACK 04 AUDIO
    TITLE "Лирика"
    PERFORMER "Юрий Хой и группа Сектор Газа"
    INDEX 00 11:51:43
    INDEX 01 11:53:43
  TRACK 05 AUDIO
    TITLE "Демобилизация"
    PERFORMER "Юрий Хой и группа Сектор Газа"
    INDEX 00 16:13:73
    INDEX 01 16:15:73
  TRACK 06 AUDIO
    TITLE "Твой звонок"
    PERFORMER "Юрий Хой и группа Сектор Газа"
    INDEX 00 20:10:19
    INDEX 01 20:12:19
  TRACK 07 AUDIO
    TITLE "Бомж"
    PERFORMER "Юрий Хой и группа Сектор Газа"
    INDEX 00 25:18:71
    INDEX 01 25:20:71
  TRACK 08 AUDIO
    TITLE "Взял вину на себя"
    PERFORMER "Юрий Хой и группа Сектор Газа"
    INDEX 00 28:53:72
    INDEX 01 28:55:72
  TRACK 09 AUDIO
    TITLE "Ночь перед Рождеством"
    PERFORMER "Юрий Хой и группа Сектор Газа"
    INDEX 00 32:10:57
    INDEX 01 32:12:57
  TRACK 10 AUDIO
    TITLE "Life"
    PERFORMER "Юрий Хой и группа Сектор Газа"
    INDEX 00 36:42:02
    INDEX 01 36:44:02
  TRACK 11 AUDIO
    TITLE "Вечером на лавочке"
    PERFORMER "Юрий Хой и группа Сектор Газа"
    INDEX 00 40:10:12
    INDEX 01 40:12:12
  TRACK 12 AUDIO
    TITLE "Возле дома твоего"
    PERFORMER "Юрий Хой и группа Сектор Газа"
    INDEX 00 44:19:37
    INDEX 01 44:21:37
  TRACK 13 AUDIO
    TITLE "Колхозный панк"
    PERFORMER "Юрий Хой и группа Сектор Газа"
    INDEX 00 47:27:07
    INDEX 01 47:29:07
  TRACK 14 AUDIO
    TITLE "Ява"
    PERFORMER "Юрий Хой и группа Сектор Газа"
    INDEX 00 51:06:62
    INDEX 01 51:08:62
  TRACK 15 AUDIO
    TITLE "Казачья"
    PERFORMER "Юрий Хой и группа Сектор Газа"
    INDEX 00 55:46:34
    INDEX 01 55:48:34
  TRACK 16 AUDIO
    TITLE "Вальпургиева ночь"
    PERFORMER "Юрий Хой и группа Сектор Газа"
    INDEX 00 58:35:74
    INDEX 01 58:37:74
  TRACK 17 AUDIO
    TITLE "Тёща"
    PERFORMER "Юрий Хой и группа Сектор Газа"
    INDEX 00 62:33:49
    INDEX 01 62:35:49


[trackeroc.ru].9809.torrent 
 ЗОЛОТАЯ РАЗДАЧА! СКАЧАННОЕ НЕ ЗАСЧИТЫВАЕТСЯ! 
Торрент: Зарегистрирован   [ 2015-11-16 06:04 ]

Скачать торрент

16 KB

Статус: проверено
Скачан: 45 раз
Размер: 702 MB
 

Angel (16-ноя-15)
Похожие торренты
Форум Тема Автор Размер
Отечественный Рок, Панк, Метал, Альтернатива Юрий (Хой) Клинских - Неизвестные песни АКУСТИЧЕСКИЙ АЛЬБОМ 1981-1987г. [MP3|192 кб/с] <Fusion / Punk-Rock / Rapcore / Hard Rock> BiOS 64 MB
Отечественный Рок, Панк, Метал, Альтернатива Юрий Хой и Сектор Газа - Вой на Луну. Лучшее и неизданное (2015) [MP3|320 кб/с] <Fusion / Punk-Rock / Rapcore / Hard Rock> BiOS 222 MB
Видео клипы Сектор Газа и Юрий (Хой) Клинских - Гуляй мужик (2010) (Клип) MP4 BiOS 54 MB
Видео клипы Сектор Газа и Юрий (Хой) Клинских. Концерт в ДК Горбунова 05.07.1996 [1996] VHSRip BiOS 651 MB

_________________
[Профиль] [ЛС]

BiOS ®

Стаж: 2 года 7 месяцев

Сообщений: 1738

Откуда: Raccoon City


Пост 17-Ноя-2015 00:04 (спустя 17 часов)

[Цитировать]

Хой ЖИВ в наших сердцах!!! Вечная память! 

_________________
[Профиль] [ЛС]
Показать сообщения:    
Ответить на тему

Текущее время: Сегодня 22:20

Часовой пояс: GMT + 4



Вы не можете начинать темы
Вы не можете отвечать на сообщения
Вы не можете редактировать свои сообщения
Вы не можете удалять свои сообщения
Вы не можете голосовать в опросах
Вы не можете прикреплять файлы к сообщениям
Вы можете скачивать файлы