Здравствуй, папа, Новый год / Daddy's Home [2015, США, Комедия, BDRip]

Ответить на тему

Статистика раздачи [Обновить пиров]
Размер:  1.46 GB   |    Зарегистрирован:  6 месяцев 25 дней   |    Скачан:  0 раз
Сидов:  1  [  0 KB/s  ]   Подробная статистика пиров
   
 
Автор Сообщение

Admin ®

Стаж: 7 месяцев 8 дней

Сообщений: 4447

Откуда: trackeroc.ru


Пост 16-Янв-2016 22:20

[Цитировать]

Здравствуй, папа, Новый год / Daddy's Home- -Страна: США
Жанр: Комедия
Продолжительность: 01:36:01
Год выпуска: 2015
-Перевод: Профессиональный (дублированный) | BD CEE
Субтитры: нет
Режиссёр: Шон Андерс / Sean Anders
-В ролях:
Уилл Феррелл, Марк Уолберг, Линда Карделлини, Томас Хейден Чёрч, Скарлет Эстевез, Оуэн Ваккаро, Бобби Каннавале, Хэннибал Бёресс, Билл Бёрр, Джейми Денбо
-Описание:
"Папа дома!" – ликуют дети, счастлива жена. А что происходит, когда дома оказываются сразу два папы...? Брэд, всегда мечтавший о дружной семье, решительно настроен стать отличным отчимом детям своей супруги. Но неожиданно домой возвращается не менее любвеобильный биологический отец Дасти. Идиллия Брэда рушится в один момент, и начинается противостояние папа vs. отчим, сдобренное изрядной долей умопомрачительно комичных моментов.
-Релиз групп All Films и RG Torrents.ru-Сэмпл: https://www.sendspace.com/file/zty680-Качество: BDRip - Исходник - BDRemux 1080p (HDCLUB)
Формат: AVI
Видео: 720x400 (1.80:1), 23.976 fps, XviD build 73 ~1778 kbps avg, 0.26 bit/pixel
Аудио: 48 kHz, AC3 Dolby Digital, 3/2 (L,C,R,l,r) + LFE ch, ~384 kbps
-

Отчёт MediaInfo

General
Complete name : C:\Users\Максим\Desktop\Daddys.Home.2015.BDRip.polkera.avi
Format : AVI
Format/Info : Audio Video Interleave
File size : 1.46 GiB
Duration : 1h 36mn
Overall bit rate : 2 172 Kbps
Writing application : VirtualDubMod 1.5.10.3 | www.virtualdub-fr.org || (build 2550/release)
Writing library : VirtualDubMod build 2550/release
Video
Format : MPEG-4 Visual
Format profile : Streaming Video@L1
Format settings, BVOP : Yes
Format settings, QPel : No
Format settings, GMC : No warppoints
Format settings, Matrix : Custom
Codec ID : XVID
Codec ID/Hint : XviD
Duration : 1h 36mn
Bit rate : 1 778 Kbps
Width : 720 pixels
Height : 400 pixels
Display aspect ratio : 16/9
Frame rate : 23.976 fps
Resolution : 24 bits
Colorimetry : 4:2:0
Scan type : Progressive
Bits/(Pixel*Frame) : 0.258
Stream size : 1.19 GiB (82%)
Writing library : XviD 73
Audio
Format : AC-3
Format/Info : Audio Coding 3
Codec ID : 2000
Duration : 1h 36mn
Bit rate mode : Constant
Bit rate : 384 Kbps
Channel(s) : 6 channels
Channel positions : Front: L C R, Surround: L R, LFE
Sampling rate : 48.0 KHz
Stream size : 264 MiB (18%)
Alignment : Split accross interleaves
Interleave, duration : 42 ms (1.00 video frame)
Interleave, preload duration : 500 ms
-

Скриншоты

- |


Смотреть онлайн

[trackeroc.ru].11028.torrent 
Торрент: Зарегистрирован   [ 2016-05-08 16:34 ]

Скачать торрент

15 KB

Статус: проверено
Скачан: 12 раз
Размер: 1.46 GB
 

Похожие торренты
Форум Тема Автор Размер
Квесты , я ищу , Поиск предметов Hidden Object The Curio Society 2: New Order Collector's edition / Антикварное общество 2: Новый порядок[P] [RUS / ENG] (2016) HOPE 1.4 GB
Фантастика Фэнтези Новый Ты / Brand New-U (2015) WEB-DLRip BiOS 1.37 GB
MMORPG Panzar: Новый рассвет (2012) [Ru/En] (40.2) License BiOS 7.3 GB
Логические игры, пазлы ,три в ряд Solitaire Christmas. Match 2 Cards / Пасьянс Пары. Новый Год [P] [RUS] (2015) HOPE 49 MB

_________________
[Профиль] [ЛС]
Показать сообщения:    
Ответить на тему

Текущее время: Сегодня 10:42

Часовой пояс: GMT + 4



Вы не можете начинать темы
Вы не можете отвечать на сообщения
Вы не можете редактировать свои сообщения
Вы не можете удалять свои сообщения
Вы не можете голосовать в опросах
Вы не можете прикреплять файлы к сообщениям
Вы можете скачивать файлы