Земля медведей / Terre des ours / Land of the Bears (2013) BDRip [H.264/1080p] [PR] скачать торрент

Reply to topic

DL-List and Torrent activity [Update пиров]
Size:  10.33 GB   |    Registered:  12 days   |    Completed:  0 times

Seeder not seen: Never

 
 
 
 
 
Author Message

BiOS ®

Longevity: 5 years 6 months

Posts: 2347

Location: East Siberia


Post 07-Oct-2019 07:32

[Quote]

Земля медведей / Terre des ours / Land of the Bears
«Путешествие в загадочный мир Камчатки»
- Производство: Франция / Cameron Pace Group, Centre National de la Cinématographie (CNC), Les films en vrac, Nature Pictures, Orange Studio
Жанр: документальный, приключения, семейный
Режиссер: Гийом Венсан
Участники: Марион Котийяр
Описание:
Документальный фильм рассказывающий о жизни медведей от самого младенчества, до перехода во взрослую жизнь, где никто и никогда больше будет помогать выжить в суровые и долгие зимы. Фильм пестрит прекрасными пейзажами нетронутой и девственной природы в различные времена года, где каждый сезон манит своей неповторимой красотой. В картине покажут жизнь одной семьи медведей, которая после длительной спячки пробуждается и идет по склонам прекрасных холмов к реке и далее к морю в поисках пропитания и накопления жира на предстоящий зимний сезон. И если же в новом сезоне не получится набрать много запасов жира, то зимой практически не остается ни каких шансов на выживание, ведь еды практически нет, а сил на поиски тратится куда больше чем весной.

Релиз от: HDclub
Продолжительность: 01:26:11
Качество видео: BDRip
Перевод: Дублированный (Омикрон)
Субтитры: русские, французские, английские
Видео: AVC/H.264, 1920x800, ~10.8 Mbps
Аудио#1: DTS, 6 ch, 1509 Kbps | Русский (Сергей Корчак)
Аудио#2: DTS, 6 ch, 1509 Kbps | Французский (Марион Котийяр)
Аудио#3: DTS, 6 ch, 1509 Kbps | Английский (Дэвид Гасман)
Аудио#4: DTS, 6 ch, 1509 Kbps | Звуки природы

Mediainfo:

Общее
Уникальный идентификатор : 212012345260673381554495866219586344602 (0x9F8017A99B17CD379E0444EFC617569A)
Полное имя : Land.of.the.Bears.2013.1080p.BluRay.Rus.Fre.Eng.Sound.HDCLUB.mkv
Формат : Matroska
Версия формата : Version 4 / Version 2
Размер файла : 10,3 Гбайт
Продолжительность : 1 ч. 26 м.
Общий поток : 17,2 Мбит/сек
Название фильма : Create by DeTorquemada for HDCLUB
Дата кодирования : UTC 2015-05-14 17:39:50
Программа кодирования : mkvmerge v7.9.0 ('Birds') 64bit
Библиотека кодирования : libebml v1.3.1 + libmatroska v1.4.2
Видео
Идентификатор : 1
Формат : AVC
Формат/Информация : Advanced Video Codec
Профиль формата : High@L4.1
Настройки формата : CABAC / 4 Ref Frames
Параметр CABAC формата : Да
Параметр RefFrames формата : 4 кадра
Идентификатор кодека : V_MPEG4/ISO/AVC
Продолжительность : 1 ч. 26 м.
Битрейт : 10,8 Мбит/сек
Ширина : 1920 пикселей
Высота : 800 пикселей
Соотношение сторон : 2,40:1
Режим частоты кадров : Постоянный
Частота кадров : 23,976 (24000/1001) кадра/сек
Цветовое пространство : YUV
Субдискретизация насыщенности : 4:2:0
Битовая глубина : 8 бит
Тип развёртки : Прогрессивная
Бит/(Пиксели*Кадры) : 0.293
Размер потока : 6,49 Гбайт (63%)
Заголовок : Земля медведей / Land of the Bears / Terre des ours (2013) - Release for HDCLUB
Библиотека кодирования : x264 core 146 r2538 121396c
Настройки программы : cabac=1 / ref=4 / deblock=1:-3:-3 / analyse=0x3:0x113 / me=umh / subme=10 / psy=1 / psy_rd=1.00:0.00 / mixed_ref=1 / me_range=48 / chroma_me=1 / trellis=2 / 8x8dct=1 / cqm=0 / deadzone=21,11 / fast_pskip=1 / chroma_qp_offset=-2 / threads=6 / lookahead_threads=1 / sliced_threads=0 / nr=0 / decimate=1 / interlaced=0 / bluray_compat=0 / constrained_intra=0 / bframes=3 / b_pyramid=2 / b_adapt=2 / b_bias=0 / direct=1 / weightb=1 / open_gop=0 / weightp=2 / keyint=240 / keyint_min=23 / scenecut=40 / intra_refresh=0 / rc_lookahead=65 / rc=crf / mbtree=0 / crf=18.0 / qcomp=0.60 / qpmin=0 / qpmax=69 / qpstep=4 / vbv_maxrate=50000 / vbv_bufsize=62500 / crf_max=0.0 / nal_hrd=none / filler=0 / ip_ratio=1.40 / pb_ratio=1.30 / aq=1:0.80
Язык : English
Default : Да
Forced : Нет
Цветовой диапазон : Limited
Коэффициенты матрицы : BT.709
Аудио #1
Идентификатор : 2
Формат : DTS
Формат/Информация : Digital Theater Systems
Идентификатор кодека : A_DTS
Продолжительность : 1 ч. 26 м.
Вид битрейта : Постоянный
Битрейт : 1509 Кбит/сек
Каналы : 6 каналов
Расположение каналов : Front: L C R, Side: L R, LFE
Частота : 48,0 КГц
Частота кадров : 93,750 кадра/сек (512 SPF)
Битовая глубина : 24 бит
Метод сжатия : С потерями
Размер потока : 930 Мбайт (9%)
Заголовок : 48KHz/24-bit, DTS, 3/2 (L,C,R,l,r) + LFE ch, 1509 kbps - Сергей Корчак
Язык : Russian
Default : Да
Forced : Нет
Аудио #2
Идентификатор : 3
Формат : DTS
Формат/Информация : Digital Theater Systems
Идентификатор кодека : A_DTS
Продолжительность : 1 ч. 26 м.
Вид битрейта : Постоянный
Битрейт : 1509 Кбит/сек
Каналы : 6 каналов
Расположение каналов : Front: L C R, Side: L R, LFE
Частота : 48,0 КГц
Частота кадров : 93,750 кадра/сек (512 SPF)
Битовая глубина : 16 бит
Метод сжатия : С потерями
Размер потока : 930 Мбайт (9%)
Заголовок : 48KHz/16-bit, DTS, 3/2 (L,C,R,l,r) + LFE ch, 1509 kbps - Марион Котийяр / Marion Cotillard
Язык : French
Default : Нет
Forced : Нет
Аудио #3
Идентификатор : 4
Формат : DTS
Формат/Информация : Digital Theater Systems
Идентификатор кодека : A_DTS
Продолжительность : 1 ч. 26 м.
Вид битрейта : Постоянный
Битрейт : 1509 Кбит/сек
Каналы : 6 каналов
Расположение каналов : Front: L C R, Side: L R, LFE
Частота : 48,0 КГц
Частота кадров : 93,750 кадра/сек (512 SPF)
Битовая глубина : 24 бит
Метод сжатия : С потерями
Размер потока : 930 Мбайт (9%)
Заголовок : 48KHz/24-bit, DTS, 3/2 (L,C,R,l,r) + LFE ch, 1509 kbps - Дэвид Гасман / David Gasman
Язык : English
Default : Нет
Forced : Нет
Аудио #4
Идентификатор : 5
Формат : DTS
Формат/Информация : Digital Theater Systems
Идентификатор кодека : A_DTS
Продолжительность : 1 ч. 26 м.
Вид битрейта : Постоянный
Битрейт : 1509 Кбит/сек
Каналы : 6 каналов
Расположение каналов : Front: L C R, Side: L R, LFE
Частота : 48,0 КГц
Частота кадров : 93,750 кадра/сек (512 SPF)
Битовая глубина : 24 бит
Метод сжатия : С потерями
Размер потока : 930 Мбайт (9%)
Заголовок : 48KHz/24-bit, DTS, 3/2 (L,C,R,l,r) + LFE ch, 1509 kbps - Звуки природы / Nature sound
Язык : French
Default : Нет
Forced : Нет
Текст #1
Идентификатор : 6
Формат : UTF-8
Идентификатор кодека : S_TEXT/UTF8
Идентификатор кодека/Информация : UTF-8 Plain Text
Заголовок : Subtitles/Captions
Язык : Russian
Default : Нет
Forced : Нет
Текст #2
Идентификатор : 7
Формат : UTF-8
Идентификатор кодека : S_TEXT/UTF8
Идентификатор кодека/Информация : UTF-8 Plain Text
Заголовок : Subtitles/Captions
Язык : French
Default : Нет
Forced : Нет
Текст #3
Идентификатор : 8
Формат : UTF-8
Идентификатор кодека : S_TEXT/UTF8
Идентификатор кодека/Информация : UTF-8 Plain Text
Заголовок : Subtitles/Captions
Язык : English
Default : Нет
Forced : Нет
Меню
00:00:00.000 : en:
00:06:19.670 : en:
00:15:29.595 : en:
00:20:06.413 : en:
00:27:38.698 : en:
00:35:26.833 : en:
00:40:18.290 : en:
00:47:38.021 : en:
00:55:06.761 : en:
01:01:43.741 : en:
01:08:20.805 : en:
01:16:04.351 : en:
01:26:11.249 : en:
-Скриншоты:


Смотреть онлайн


[trackeroc.org].29291.torrent 
 SILVER TORRENT! DOWNLOAD TRAFFIC PARTIALLY CONSIDERED! 
Torrent: Registered   [ 2019-10-07 07:36 ]

Скачать торрент

27 KB

Status: checked
Completed: 19 times
Size: 10.33 GB
 

Admin (07-окт-19)
Similar torrent
Forum Topic Author Size
Зарубежные сериалы Земля-I / The I-Land (2019) WEB-DLRip (сезон 1, серии 1-7 из 7) Невафильм Admin 3.97 GB
Боевики Выжженная земля / Scorched Earth Admin 1.46 GB
Strategy, Стратегии Onimod Land / Земля онимодов [L] [RUS + ENG / RUS + ENG] (2017) (3.0) Admin 111 MB
Strategy Anomaly: Warzone Earth / Аномалия: Поле битвы Земля (2011) [Ru/Multi] (1.0) GOG Admin 550 MB

_________________
[Profile] [PM]
Display posts from previous:    
Reply to topic

The time now is: Today 05:37

All times are GMT + 4 Hours



You cannot post new topics in this forum
You cannot reply to topics in this forum
You cannot edit your posts in this forum
You cannot delete your posts in this forum
You cannot vote in polls in this forum
You cannot attach files in this forum
You can download files in this forum