Зловещие мертвецы 3: Армия тьмы / Army of Darkness (1992) BDRip

Ответить на тему

Статистика раздачи [Обновить пиров]
Размер:  2.05 GB   |    Зарегистрирован:  1 год   |    Скачан:  0 раз
DL-List: Нет

Полного источника не было: 9 месяцев 25 дней

 
 
 
 
Автор Сообщение

Angel ®

Стаж: 1 год 3 месяца

Сообщений: 31


Пост 20-Ноя-2015 10:13

[Цитировать]

Зловещие мертвецы 3: Армия тьмы / Army of Darkness«He's a 20th century guy, trapped in the middle ages»- Производство: USA / Dino De Laurentiis Company, Renaissance Pictures, Universal Pictures
Жанр: ужасы, фэнтези, комедия
Режиссер: Сэм Рэйми
Продюсер: Роберт Дж. Тейперт, Брюс Кэмпбелл, Дино Де Лаурентис
Актеры: Брюс Кэмпбелл, Эмбет Дэвидц, Маркус Гилберт, Йен Эберкромби, Ричард Гроув, Тимоти Патрик Куилл,
Майкл Эрл Рейд, Бриджит Фонда, Патриша Тэллман, Тед Рэйми
Описание:
По воле случая Эш переносится в далекое прошлое. Вместе со своим автомобилем и двухстволкой он оказывается в 13 веке. В этом мрачном средневековье люди страдают от сил тьмы. Бедняга Эш был пойман добропорядочными гражданами и помещен в местную тюрьму. Он с трудом смог убедить судью в том, что он вовсе не шпион из враждебного королевства. Он решает помочь людям в битве с врагами.
Чтобы победить, он должен восстановить Некрономикон, старинную магическую книгу, которая поможет ему вернуться в свое время. По неосторожности Эш выпустил на волю Армию тьмы. Как победить живых мертвецов?..
Рейтинг MPAA: R - Детям до 17 лет обязательно присутствие родителей
Продолжительность: 01:20:46
Перевод: Двуголосый закадровый (Гланц и Королева), Многоголосый закадровый, Авторский одноголосый (А.Михалёв), Авторский одноголосый (А.Марченко), Авторский одноголосый (А.Готлиб)
Дата мировой премьеры: 9 октября 1992
Видеокодек: Xvid
Битрейт видео: ~2132 Кбит/сек
Размер кадра: 720 x 384
Качество видео: BDRip
Аудио 1: AC3 5.1, 448 Кбит/сек - Двуголосый закадровый (Гланц и Королева)
Аудио 2: AC3 2.0, 192 Кбит/сек - Многоголосый закадровый
Аудио 3: AC3 5.1, 448 Кбит/сек - Авторский одноголосый (А.Михалёв)
Аудио 4: AC3 2.0, 192 Кбит/сек - Авторский одноголосый (А.Марченко)
Аудио 5: AC3 2.0, 192 Кбит/сек - Авторский одноголосый (А.Готлиб)

MediaInfo

Код:
Формат : AVI
Формат/Информация : Audio Video Interleave
Профиль формата : OpenDML
Размер файла : 2,05 Гбайт
Продолжительность : 1 ч. 20 м.
Общий поток : 3641 Кбит/сек
Программа кодирования : VirtualDubModRus 1.5.10.2 (build 2542/release)
Библиотека кодирования : VirtualDubMod build 2542/release
Видео
Идентификатор : 0
Формат : MPEG-4 Visual
Профиль формата : Advanced Simple@L5
Параметр BVOP формата : 1
Параметр QPel формата : Нет
Параметр GMC формата : Без точки перехода
Параметр матрицы формата : Default (MPEG)
Идентификатор кодека : XVID
Идентификатор кодека/Подсказка : XviD
Продолжительность : 1 ч. 20 м.
Битрейт : 2132 Кбит/сек
Ширина : 720 пикселей
Высота : 384 пикселя
Соотношение сторон : 1,875
Частота кадров : 23,976 кадра/сек
Цветовое пространство : YUV
Субдискретизация насыщенности : 4:2:0
Битовая глубина : 8 бит
Тип развёртки : Прогрессивная
Метод сжатия : С потерями
Бит/(Пиксели*Кадры) : 0.322
Размер потока : 1,20 Гбайт (59%)
Библиотека кодирования : XviD 1.2.1 (UTC 2008-12-04)
Аудио #1
Идентификатор : 1
Формат : AC-3
Формат/Информация : Audio Coding 3
Расширение режима : CM (complete main)
Идентификатор кодека : 2000
Продолжительность : 1 ч. 20 м.
Вид битрейта : Постоянный
Битрейт : 448 Кбит/сек
Каналы : 6 каналов
Расположение каналов : Front: L C R, Side: L R, LFE
Частота : 48,0 КГц
Битовая глубина : 16 бит
Метод сжатия : С потерями
Размер потока : 259 Мбайт (12%)
Выравнивание : Разделение по промежуткам
Продолжительность промежутка : 42 мс. (1,00 видеокадр)
Время предзагрузки промежутка : 500 мс.
Заголовок : Двухголосый закадровый (Гланц и Королева)
Аудио #2
Идентификатор : 2
Формат : AC-3
Формат/Информация : Audio Coding 3
Расширение режима : CM (complete main)
Идентификатор кодека : 2000
Продолжительность : 1 ч. 20 м.
Вид битрейта : Постоянный
Битрейт : 192 Кбит/сек
Каналы : 2 канала
Расположение каналов : Front: L R
Частота : 48,0 КГц
Битовая глубина : 16 бит
Метод сжатия : С потерями
Размер потока : 111 Мбайт (5%)
Выравнивание : Разделение по промежуткам
Продолжительность промежутка : 42 мс. (1,00 видеокадр)
Время предзагрузки промежутка : 500 мс.
Заголовок : Многоголосый закадровый
Аудио #3
Идентификатор : 3
Формат : AC-3
Формат/Информация : Audio Coding 3
Расширение режима : CM (complete main)
Идентификатор кодека : 2000
Продолжительность : 1 ч. 20 м.
Вид битрейта : Постоянный
Битрейт : 448 Кбит/сек
Каналы : 6 каналов
Расположение каналов : Front: L C R, Side: L R, LFE
Частота : 48,0 КГц
Битовая глубина : 16 бит
Метод сжатия : С потерями
Размер потока : 259 Мбайт (12%)
Выравнивание : Разделение по промежуткам
Продолжительность промежутка : 42 мс. (1,00 видеокадр)
Время предзагрузки промежутка : 500 мс.
Заголовок : Авторский одноголосый А.Михалёв
Аудио #4
Идентификатор : 4
Формат : AC-3
Формат/Информация : Audio Coding 3
Расширение режима : CM (complete main)
Идентификатор кодека : 2000
Продолжительность : 1 ч. 20 м.
Вид битрейта : Постоянный
Битрейт : 192 Кбит/сек
Каналы : 2 канала
Расположение каналов : Front: L R
Частота : 48,0 КГц
Битовая глубина : 16 бит
Метод сжатия : С потерями
Размер потока : 111 Мбайт (5%)
Выравнивание : Разделение по промежуткам
Продолжительность промежутка : 42 мс. (1,00 видеокадр)
Время предзагрузки промежутка : 500 мс.
Заголовок : Авторский одноголосый Марченко
Аудио #5
Идентификатор : 5
Формат : AC-3
Формат/Информация : Audio Coding 3
Расширение режима : CM (complete main)
Идентификатор кодека : 2000
Продолжительность : 1 ч. 20 м.
Вид битрейта : Постоянный
Битрейт : 192 Кбит/сек
Каналы : 2 канала
Расположение каналов : Front: L R
Частота : 48,0 КГц
Битовая глубина : 16 бит
Метод сжатия : С потерями
Размер потока : 111 Мбайт (5%)
Выравнивание : Разделение по промежуткам
Продолжительность промежутка : 42 мс. (1,00 видеокадр)
Время предзагрузки промежутка : 500 мс.
Заголовок : Авторский одноголосый Готлиб

Награды и премии

Сатурн, 1994 год
Победитель (1):
*** Лучший фильм ужасов
Номинации (1):
*** Лучший грим
-Скриншоты:


Смотреть онлайн

[trackeroc.ru].9943.torrent 
Торрент: Зарегистрирован   [ 2015-11-20 10:13 ]

Скачать торрент

11 KB

Статус: проверено
Скачан: 25 раз
Размер: 2.05 GB
 

BiOS (20-ноя-15)
Похожие торренты
Форум Тема Автор Размер
Зарубежные сериалы Ходячие мертвецы / The Walking Dead (2016) WEB-DLRip (сезон 7, серии 1-6 из 16) Admin 4.49 GB
Квесты , я ищу , Поиск предметов Hidden Object Ominous Objects 4: Lumina Camera Collector's Edition / Зловещие вещи 4: Камера 'Lumina' [P] [RUS / ENG] (2016) HOPE 992 MB
Зарубежные сериалы Ходячие мертвецы / The Walking Dead / BDRip / WEB-DLRip (сезон 1-7, серии 1-86 из 99) LostFilm Admin 65.49 GB
Документальные Трейлеры Пираты Карибского моря: Мертвецы не рассказывают сказки / Pirates of the Caribbean: Dead Men Tell No Tales (2017) WEBRip BiOS 241 MB
Зарубежные сериалы Ходячие мертвецы / The Walking Dead (2015) WEB-DLRip (сезон 6, серии 1-16) Admin 8.75 GB
[Профиль] [ЛС]
Показать сообщения:    
Ответить на тему

Текущее время: Сегодня 02:20

Часовой пояс: GMT + 4



Вы не можете начинать темы
Вы не можете отвечать на сообщения
Вы не можете редактировать свои сообщения
Вы не можете удалять свои сообщения
Вы не можете голосовать в опросах
Вы не можете прикреплять файлы к сообщениям
Вы можете скачивать файлы