Зверополис / Zootopia (2016) WEBRip | Line

Ответить на тему

Статистика раздачи [Обновить пиров]
Скачали
Размер:  1.46 GB   |    Зарегистрирован:  3 месяца 20 дней   |    Скачан:  3 раза

Сидов:

Пользователь ULR Отдано Скачано Отдача Загрузка
Anonymous 0.2 225 MB - 0.7 KB/s -
показаны данные только за текущую сессию
 
 
 
 
Автор Сообщение

BiOS ®

Стаж: 2 года 7 месяцев

Сообщений: 1730

Откуда: Raccoon City


Пост 05-Мар-2016 17:42

[Цитировать]

Зверополис / Zootopia
«Welcome to the urban jungle»
- Производство: США / Walt Disney Animation Studios, Walt Disney Pictures
Жанр: мультфильм, боевик, комедия, криминал, приключения, семейный
Режиссер: Байрон Ховард, Рич Мур, Джаред Буш
Продюсер: Кларк Спенсер, Моника Лаго-Кэйтис, Джон Лассетер
Персонажи: Джиннифер Гудвин, Джейсон Бейтмен, Идрис Эльба, Дженни Слейт, Нейт Торренс, Бонни Хант, Дон Лейк, Томми Чонг, Дж.К. Симмонс, Октавия Спенсер, Алан Тьюдик, Шакира, Рэймонд С. Перси, Делла Саба, Морис ЛаМарш, Фуския, Джон Ди Маджио, Кэти Лоус, Джесси Корти, Том ’Тайни’ Листер мл.
Описание:
Добро пожаловать в Зверополис — современный город, населенный самыми разными животными, от огромных слонов до крошечных мышек. Зверополис разделен на районы, полностью повторяющие естественную среду обитания разных жителей — здесь есть и элитный район Площадь Сахары и неприветливый Тундратаун. В этом городе появляется новый офицер полиции, жизнерадостная зайчиха Джуди Хоппс, которая с первых дней работы понимает, как сложно быть маленькой и пушистой среди больших и сильных полицейских. Джуди хватается за первую же возможность проявить себя, несмотря на то, что ее партнером будет болтливый хитрый лис Ник Уайлд. Вдвоем им предстоит раскрыть сложное дело, от которого будет зависеть судьба всех обитателей Зверополиса.
Возраст: 6+ (зрителям, достигшим 6 лет)
Рейтинг MPAA: PG (рекомендуется присутствие родителей)
Дата мировой премьеры: 11 февраля 2016
Дата российской премьеры: 3 марта 2016, «WDSSPR»
Релиз на DVD/Blu-Ray: 3 июня 2016, «Уолт Дисней Компани СНГ»

Продолжительность: 01:48:44
Качество: HDRip
Перевод: Дублированный (Лицензия BD EUR)
Субтитры: Отсутствуют
Видео: XviD, 720x304, (2,35:1), 1470 Kbps, 23.976 fps
Аудио: AC3, 6 ch, 448 kbps - Русский

MediaInfo:

Код:
Общее
Формат                                   : AVI
Формат/Информация                        : Audio Video Interleave
Размер файла                             : 1,46 Гбайт
Продолжительность                        : 1 ч. 48 м.
Общий поток                              : 1925 Кбит/сек
Видео
Идентификатор                            : 0
Формат                                   : MPEG-4 Visual
Профиль формата                          : Advanced Simple@L5
Параметр BVOP формата                    : 1
Параметр QPel формата                    : Нет
Параметр GMC формата                     : Без точки перехода
Параметр матрицы формата                 : Выборочная
Идентификатор кодека                     : XVID
Идентификатор кодека/Подсказка           : XviD
Продолжительность                        : 1 ч. 48 м.
Битрейт                                  : 1470 Кбит/сек
Ширина                                   : 720 пикселей
Высота                                   : 304 пикселя
Соотношение сторон                       : 2,35:1
Частота кадров                           : 23,976 (24000/1001) кадра/сек
Цветовое пространство                    : YUV
Субдискретизация насыщенности            : 4:2:0
Битовая глубина                          : 8 бит
Тип развёртки                            : Прогрессивная
Метод сжатия                             : С потерями
Бит/(Пиксели*Кадры)                      : 0.280
Размер потока                            : 1,12 Гбайт (76%)
Библиотека кодирования                   : XviD 73
Аудио
Идентификатор                            : 1
Формат                                   : AC-3
Формат/Информация                        : Audio Coding 3
Расширение режима                        : CM (complete main)
Параметр Endianness формата              : Big
Идентификатор кодека                     : 2000
Продолжительность                        : 1 ч. 48 м.
Вид битрейта                             : Постоянный
Битрейт                                  : 448 Кбит/сек
Каналы                                   : 6 каналов
Расположение каналов                     : Front: L C R, Side: L R, LFE
Частота                                  : 48,0 КГц
Частота кадров                           : 31,250 кадров/сек (1536 spf)
Метод сжатия                             : С потерями
Размер потока                            : 348 Мбайт (23%)
Выравнивание                             : Соединение по промежуткам
Продолжительность промежутка             : 64  мс. (1,53 видеокадра)
Время предзагрузки промежутка            : 192  мс.
Заголовок                                : BD CEE

Трейлер:


-Скриншоты:


Смотреть онлайн

[trackeroc.ru].11949.torrent 
Торрент: Зарегистрирован   [ 2016-08-16 08:43 ]

Скачать торрент

15 KB

Статус: проверено
Скачан: 38 раз
Размер: 1.46 GB
 

Admin (05-мар-16)

_________________
[Профиль] [ЛС]
Показать сообщения:    
Ответить на тему

Текущее время: Сегодня 22:33

Часовой пояс: GMT + 4



Вы не можете начинать темы
Вы не можете отвечать на сообщения
Вы не можете редактировать свои сообщения
Вы не можете удалять свои сообщения
Вы не можете голосовать в опросах
Вы не можете прикреплять файлы к сообщениям
Вы можете скачивать файлы