Звездные Войны: Войска Освобождения II / Star Wars: The Force Unleashed II (2010) WEBRip [H.264/1080p-LQ]

Ответить на тему

Статистика раздачи [Обновить пиров]
Скачали
Размер:  1.46 GB   |    Зарегистрирован:  10 месяцев 13 дней   |    Скачан:  5 раз

Полного источника не было: 27 дней

 
 
 
 
Автор Сообщение

BiOS ®

Стаж: 2 года 7 месяцев

Сообщений: 1730

Откуда: Raccoon City


Пост 21-Янв-2016 20:01

[Цитировать]

Звездные Войны: Войска Освобождения II / Star Wars: The Force Unleashed II - Производство: LucasArts
Жанр: Фантастика, Приключения, Игровое видео
Описание:
Продолжение истории о Старкиллере, ученике Дарта Вейдера, обманутом и предательски убитом в финале первой части игры. Благодаря технологиям клонирования Старкиллер возвращается к жизни, однако он лишен памяти. Теперь он отправляется в новое путешествие с единственной целью — вспомнить все!
Однако на пути к утерянным воспоминаниям Старкиллера ждет множество опасностей и, конечно, встреча со своим учителем, который так и не оставил надежды создать идеального воина-ситха.
Продолжительность: 00:50:07
Качество видео: WEBRip
Перевод: Многоголосый закадровый (КиНаТаН)
Язык субтитров: Русский
Вид субтитров: Вшитые (не отключаемые)
Видео: AVC/H.264, 1920х1080, ~3907 kbps
Аудио: AAC, 2 ch, 254 kbps, CBR

Mediainfo:

Код:
Формат : MPEG-4
Профиль формата : Base Media
Идентификатор кодека : isom
Размер файла : 1,46 Гбайт
Продолжительность : 50 м.
Общий поток : 4170 Кбит/сек
Программа кодирования : Lavf57.2.100
Видео
Идентификатор : 1
Формат : AVC
Формат/Информация : Advanced Video Codec
Профиль формата : High@L4.2
Параметр CABAC формата : Да
Параметр ReFrames формата : 3 кадра
Идентификатор кодека : avc1
Идентификатор кодека/Информация : Advanced Video Coding
Продолжительность : 50 м.
Битрейт : 3907 Кбит/сек
Ширина : 1920 пикселей
Высота : 1080 пикселей
Соотношение сторон : 16:9
Режим частоты кадров : Постоянный
Частота кадров : 50,000 кадров/сек
Цветовое пространство : YUV
Субдискретизация насыщенности : 4:2:0
Битовая глубина : 8 бит
Тип развёртки : Прогрессивная
Бит/(Пиксели*Кадры) : 0.038
Размер потока : 1,37 Гбайт (94%)
Аудио
Идентификатор : 2
Формат : AAC
Формат/Информация : Advanced Audio Codec
Профиль формата : LC
Идентификатор кодека : 40
Продолжительность : 50 м.
Вид битрейта : Постоянный
Битрейт : 254 Кбит/сек
Каналы : 2 канала
Расположение каналов : Front: L R
Частота : 44,1 КГц
Метод сжатия : С потерями
Размер потока : 90,9 Мбайт (6%)
-Скриншоты:


[trackeroc.ru].11145.torrent 
 СЕРЕБРЯНАЯ РАЗДАЧА! СКАЧАННОЕ ЗАСЧИТЫВАЕТСЯ ТОЛЬКО НАПОЛОВИНУ! 
Торрент: Зарегистрирован   [ 2016-01-21 20:01 ]

Скачать торрент

15 KB

Статус: проверено
Скачан: 26 раз
Размер: 1.46 GB
 

Admin (21-янв-16)
Похожие торренты
Форум Тема Автор Размер
Документальные Трейлеры Другой мир: Войны крови / Underworld: Blood Wars (2017) WEBRip [H.264/1080p] [Трейлер] BiOS 243 MB
Комедии Соседи. На тропе войны 2 / Neighbors 2: Sorority Rising (2016) WEB-DLRip Admin 1.45 GB
XBox 360 | Игры LEGO Star Wars: The Force Awakens / LEGO Звездные войны: Пробуждение Силы (2016) [Xbox360] 17349 [LT+3.0] [Ru/En] Admin 8.14 GB
Российские сериалы Диверсант / Диверсант Диверсант 2: Конец войны (2004-2007) DVDRip (2 Сезона, 14 серий) BiOS 9.57 GB

_________________
[Профиль] [ЛС]

drojjj

Стаж: 1 год 9 месяцев

Сообщений: 4


Пост 21-Янв-2016 23:36 (спустя 3 часа)

[Цитировать]

кто нибудь саму игру видел*? 
[Профиль] [ЛС]

Admin

Стаж: 7 месяцев 8 дней

Сообщений: 4447

Откуда: trackeroc.ru


Пост 21-Янв-2016 23:44 (спустя 8 минут)

[Цитировать]

кто нибудь саму игру видел*?
http://trackeroc.ru/viewtopic.php?t=1071
http://trackeroc.ru/viewtopic.php?t=1070


_________________
[Профиль] [ЛС]
Показать сообщения:    
Ответить на тему

Текущее время: Сегодня 21:36

Часовой пояс: GMT + 4



Вы не можете начинать темы
Вы не можете отвечать на сообщения
Вы не можете редактировать свои сообщения
Вы не можете удалять свои сообщения
Вы не можете голосовать в опросах
Вы не можете прикреплять файлы к сообщениям
Вы можете скачивать файлы