Звездные Войны: Войска Освобождения / Star Wars: The Force Unleashed (2009) WEBRip [H.264/1080p-LQ]

Ответить на тему

Статистика раздачи [Обновить пиров]
Скачали
Размер:  1.56 GB   |    Зарегистрирован:  10 месяцев 13 дней   |    Скачан:  5 раз

Полного источника не было: 27 дней

 
 
 
 
Автор Сообщение

BiOS ®

Стаж: 2 года 7 месяцев

Сообщений: 1732

Откуда: Raccoon City


Пост 21-Янв-2016 19:58

[Цитировать]

Звездные Войны: Войска Освобождения / Star Wars: The Force Unleashed - Производство: LucasArts
Жанр: Фантастика, Приключения, Игровое видео
Описание:
За десятилетия «Звездные войны» из простого фильма превратились в культовую космическую сагу с легендарными героями. Это целый мир, полный удивительных загадок и тайн. Star Wars: The Force Unleashed приоткрывает завесу секретности и дает ответы на множество волнующих вопросов. Революционная для серии игра служит связующим звеном между двумя трилогиями Джорджа Лукаса, соединяя третий и четвертый эпизоды. Мэтр лично трудился над сюжетом, поэтому будьте готовы к интригам, удивительным открытиям и шокирующим развязкам.
Продолжительность: 00:58:10
Качество видео: WEBRip
Перевод: Многоголосый закадровый (КиНаТаН)
Язык субтитров: Русский
Вид субтитров: Вшитые (не отключаемые)
Видео: AVC/H.264, 1920х1080, ~3575 kbps
Аудио: AAC, 2 ch, 254 kbps, CBR

Mediainfo:

Код:
Формат : MPEG-4
Профиль формата : Base Media
Идентификатор кодека : isom
Размер файла : 1,56 Гбайт
Продолжительность : 58 м.
Общий поток : 3838 Кбит/сек
Программа кодирования : Lavf57.2.100
Видео
Идентификатор : 1
Формат : AVC
Формат/Информация : Advanced Video Codec
Профиль формата : High@L4.2
Параметр CABAC формата : Да
Параметр ReFrames формата : 3 кадра
Идентификатор кодека : avc1
Идентификатор кодека/Информация : Advanced Video Coding
Продолжительность : 58 м.
Битрейт : 3575 Кбит/сек
Ширина : 1920 пикселей
Высота : 1080 пикселей
Соотношение сторон : 16:9
Режим частоты кадров : Постоянный
Частота кадров : 50,000 кадров/сек
Цветовое пространство : YUV
Субдискретизация насыщенности : 4:2:0
Битовая глубина : 8 бит
Тип развёртки : Прогрессивная
Бит/(Пиксели*Кадры) : 0.034
Размер потока : 1,45 Гбайт (93%)
Аудио
Идентификатор : 2
Формат : AAC
Формат/Информация : Advanced Audio Codec
Профиль формата : LC
Идентификатор кодека : 40
Продолжительность : 58 м.
Вид битрейта : Постоянный
Битрейт : 254 Кбит/сек
Каналы : 2 канала
Расположение каналов : Front: L R
Частота : 44,1 КГц
Метод сжатия : С потерями
Размер потока : 106 Мбайт (7%)
-Скриншоты:


[trackeroc.ru].11144.torrent 
 СЕРЕБРЯНАЯ РАЗДАЧА! СКАЧАННОЕ ЗАСЧИТЫВАЕТСЯ ТОЛЬКО НАПОЛОВИНУ! 
Торрент: Зарегистрирован   [ 2016-01-21 19:58 ]

Скачать торрент

16 KB

Статус: проверено
Скачан: 25 раз
Размер: 1.56 GB
 

Admin (21-янв-16)
Похожие торренты
Форум Тема Автор Размер
Фантастика Фэнтези Другой мир: Войны крови / Underworld: Blood Wars (2016) CamRip BiOS 1.37 GB
Документальные Трейлеры Другой мир: Войны крови / Underworld: Blood Wars (2017) WEBRip [H.264/1080p] [Трейлер] BiOS 243 MB
Комедии Соседи. На тропе войны 2 / Neighbors 2: Sorority Rising (2016) WEB-DLRip Admin 1.45 GB
XBox 360 | Игры LEGO Star Wars: The Force Awakens / LEGO Звездные войны: Пробуждение Силы (2016) [Xbox360] 17349 [LT+3.0] [Ru/En] Admin 8.14 GB
Российские сериалы Диверсант / Диверсант Диверсант 2: Конец войны (2004-2007) DVDRip (2 Сезона, 14 серий) BiOS 9.57 GB

_________________
[Профиль] [ЛС]

BiOS ®

Стаж: 2 года 7 месяцев

Сообщений: 1732

Откуда: Raccoon City


Пост 01-Июл-2016 20:20 (спустя 5 месяцев 11 дней)

[Цитировать]

Сама игра: http://trackeroc.ru/viewtopic.php?t=1071
http://trackeroc.ru/viewtopic.php?t=1070 


_________________
[Профиль] [ЛС]
Показать сообщения:    
Ответить на тему

Текущее время: Сегодня 03:50

Часовой пояс: GMT + 4



Вы не можете начинать темы
Вы не можете отвечать на сообщения
Вы не можете редактировать свои сообщения
Вы не можете удалять свои сообщения
Вы не можете голосовать в опросах
Вы не можете прикреплять файлы к сообщениям
Вы можете скачивать файлы