Авангард: Арктические волки / Vanguard / Ji xian feng (2020) TS [H.264/720p-LQ] [MVO] [AD] скачать торрент

Reply to topic

DL-List and Torrent activity [Update пиров]
Size:  2.1 GB   |    Registered:  1 month 21 day   |    Completed:  0 times
Seeders:  30  [  1 MB/s  ]   Leechers:  1  [  10 MB/s  ]   Show peers in full details
 
 
 
 
Author Message

Moder ®

Longevity: 6 years 7 months

Posts: 2540

Location: Earth


Post 07-Oct-2020 11:17

[Quote]

Авангард: Арктические волки / Vanguard / Ji xian feng «Protection beyond frontiers»- Производство: Китай / China Film (Shanghai) International Media Co., China Film Group Corporation (CFGC), Epitome Capital
Жанр: Боевик, криминал
Режиссер: Стэнли Тун
Актеры: Джеки Чан, Ян Ян, Ай Лунь, Сюй Жохань, Мия Муци, Чжу Чжэнтин, Джексон Лоу, Эйад Хурани, Дзавад Рамезани, Десмонд Элдридж
Описание:
Они берутся за задания, которые другим не под силу. Когда международный синдикат наемников похищает известного бизнесмена, единственным шансом на его спасение становится лихая команда «Авангард», не имеющая равных в мастерстве и дерзости.

Возраст: 16+ (зрителям, достигшим 16 лет)
Дата мировой премьеры: 30 сентября 2020
Дата премьеры в России: 15 октября 2020

Продолжительность: 01:35:19
Качество видео: TS
Перевод: Многоголосый закадровый, любительский (КОЛОБОК)
Субтитры: Отсутствуют
Реклама: Присутствует баннер.
Видео: AVC/H.264, 1280x536, ~2706 Kbps
Аудио: AC-3, 2 ch, 384 Kbps

MediaInfo:

Общее
Полное имя : Vanguard.2020.TS.720p-LQ.mkv
Формат : Matroska
Версия формата : Version 2
Размер файла : 2,10 Гбайт
Продолжительность : 1 ч. 35 м.
Режим общего битрейта : Переменный
Общий поток : 3152 Кбит/сек
Программа кодирования : libmatroska 1.4.1
Библиотека кодирования : SolveigMM Matroska Muxer Version 1.0.1904.23
Видео
Идентификатор : 1
Формат : AVC
Формат/Информация : Advanced Video Codec
Профиль формата : [email protected]
Настройки формата : CABAC / 4 Ref Frames
Параметр CABAC формата : Да
Параметр RefFrames формата : 4 кадра
Идентификатор кодека : V_MPEG4/ISO/AVC
Продолжительность : 1 ч. 35 м.
Вид битрейта : Переменный
Битрейт : 2706 Кбит/сек
Номинальный битрейт : 3000 Кбит/сек
Максимальный битрейт : 3000 Кбит/сек
Ширина : 1280 пикселей
Высота : 536 пикселей
Соотношение сторон : 2,40:1
Режим частоты кадров : Постоянный
Частота кадров : 23,976 (24000/1001) кадра/сек
Стандарт вещания : Component
Цветовое пространство : YUV
Субдискретизация насыщенности : 4:2:0
Битовая глубина : 8 бит
Тип развёртки : Прогрессивная
Бит/(Пиксели*Кадры) : 0.164
Размер потока : 1,80 Гбайт (86%)
Default : Нет
Forced : Нет
Цветовой диапазон : Limited
Основные цвета : BT.709
Характеристики трансфера : BT.709
Коэффициенты матрицы : BT.709
Аудио
Идентификатор : 2
Формат : AC-3
Формат/Информация : Audio Coding 3
Коммерческое название : Dolby Digital
Идентификатор кодека : A_AC3
Продолжительность : 1 ч. 35 м.
Вид битрейта : Постоянный
Битрейт : 384 Кбит/сек
Каналы : 2 канала
ChannelLayout : L R
Частота : 48,0 КГц
Частота кадров : 31,250 кадров/сек (1536 SPF)
Метод сжатия : С потерями
Размер потока : 262 Мбайт (12%)
ServiceKind/String : Complete Main
Default : Нет
Forced : Нет
-Скриншоты:


Смотреть онлайн

[trackeroc.org].31963.torrent  Магнет ссылка
Torrent: Registered   [ 2020-10-07 11:17 ]

Скачать торрент

11 KB

Status: checked
Completed: 131 times
Size: 2.1 GB
 

trackeroc.org (07-окт-20)

Similar torrent
Forum Topic Author Size
Квесты, я ищу, Поиск предметов, Hidden Object Vermillion Watch 5: London Howling / Алый Дозор 5: Волки в Лондоне [RUS / ENG] (2018) Admin 940 MB
Отечественные Волки и овцы: бе-е-е-зумное превращение (2016) WEB-DLRip | iTunes Admin 1.37 GB

_________________
[Profile] [PM]

DarthNihilus

Longevity: 6 years

Posts: 741

Location: Korriban


Post 07-Oct-2020 23:02 (after 11 hours)

[Quote]

очередщная жвачка 

_________________
[Profile] [PM]
Display posts from previous:    
Reply to topic

The time now is: Today 15:13

All times are GMT + 4 Hours



You cannot post new topics in this forum
You cannot reply to topics in this forum
You cannot edit your posts in this forum
You cannot delete your posts in this forum
You cannot vote in polls in this forum
You cannot attach files in this forum
You can download files in this forum