Баффи - истребительница вампиров / Buffy the Vampire Slayer (1997-2003) WEB-DL [H.264/1080p-LQ] (сезон 1-7, серии 1-144 из 144) ОРТ, РенТВ, ТВ3 скачать торрент

Reply to topic


DL-List and Torrent activity [Update пиров]
Size:  333.11 GB   |    Registered:  19 days   |    Completed:  0 times

Seeder not seen: Never

 
 
 
 
 
Author Message

Pro100Moder ®

Longevity: 6 years 11 months

Posts: 2542

Location: Earth


Post 28-Mar-2021 10:09

[Quote]

Баффи - истребительница вампиров / Buffy the Vampire Slayer
«Fight evil, bring Buffy home»
- Производство: США | 20th Century Fox Television, Kuzui Enterprises
Жанр: Фэнтези, боевик, драма, мелодрама
Режиссер: Джосс Уидон, Джеймс А. Контнер, Дэвид Соломон
Актеры: Сара Мишель Геллар, Николас Брендон, Элисон Хэннигэн, Энтони Хэд, Джеймс Марстерс, Эмма Колфилд, Мишель Трахтенберг, Дэвид Бореаназ, Харизма Карпентер, Эмбер Бенсон
Описание:
Старшеклассница Баффи Саммерс переезжает из Лос-Анджелеса в городок Саннидейл. Никто не знает, что Баффи — не простая школьница, а Избранная, которой суждено сражаться с демонами, вампирами и силами зла. Однако это всеобщее незнание длится недолго — вплоть до встречи Баффи с мистером Рупертом Джайлзом, школьным библиотекарем, который оказывается личным Смотрителем Баффи, посланным, чтобы тренировать её, помочь ей стать настоящей Истребительницей вампиров.

Возраст: 12+ (зрителям, достигшим 12 лет)
Продолжительность: ~00:45:00 серия
Качество видео: WEB-DL
Перевод: Многоголосый профессиональный (ОРТ, РенТВ, ТВ3)
Язык озвучки: Русский, английский
Субтитры: Русские, английские
Видео: AVC/H.264, 1920х1080, ~8000 kbps
Аудио 1: MP3, 2 ch, 128 kbps - русский
Аудио 2: E-AC3, 6 ch, 640 kbps - английский

MediaInfo:

General
Unique ID : 49446582995546425078156168860805060912 (0x253310C38D1E36C85F126A90935B5930)
Complete name : Buffy (1997) s01e01 - Добро пожаловать в Чёртову Пасть.mkv
Format : Matroska
Format version : Version 4
File size : 4.66 GiB
Duration : 43 min 35 s
Overall bit rate : 15.3 Mb/s
Encoded date : UTC 2018-10-21 22:18:31
Writing application : mkvmerge v28.0.0 ('Voice In My Head') 64-bit
Writing library : libebml v1.3.6 + libmatroska v1.4.9
Video
ID : 1
Format : AVC
Format/Info : Advanced Video Codec
Format profile : [email protected]
Format settings : CABAC / 1 Ref Frames
Format settings, CABAC : Yes
Format settings, ReFrames : 1 frame
Codec ID : V_MPEG4/ISO/AVC
Duration : 43 min 33 s
Bit rate : 14.5 Mb/s
Width : 1 920 pixels
Height : 1 080 pixels
Display aspect ratio : 16:9
Frame rate mode : Constant
Frame rate : 23.976 (23976/1000) FPS
Original frame rate : 23.976 (24000/1001) FPS
Color space : YUV
Chroma subsampling : 4:2:0
Bit depth : 8 bits
Scan type : Progressive
Bits/(Pixel*Frame) : 0.292
Stream size : 4.42 GiB (95%)
Default : Yes
Forced : No
Audio #1
ID : 2
Format : MPEG Audio
Format version : Version 1
Format profile : Layer 3
Format settings : Joint stereo / MS Stereo
Codec ID : A_MPEG/L3
Codec ID/Hint : MP3
Duration : 43 min 35 s
Bit rate mode : Constant
Bit rate : 128 kb/s
Channel(s) : 2 channels
Sampling rate : 48.0 kHz
Frame rate : 41.667 FPS (1152 SPF)
Compression mode : Lossy
Stream size : 39.9 MiB (1%)
Language : Russian
Default : Yes
Forced : No
Audio #2
ID : 3
Format : E-AC-3
Format/Info : Enhanced AC-3
Commercial name : Dolby Digital Plus
Codec ID : A_EAC3
Duration : 43 min 34 s
Bit rate mode : Constant
Bit rate : 640 kb/s
Channel(s) : 6 channels
Channel layout : L R C LFE Ls Rs
Sampling rate : 48.0 kHz
Frame rate : 31.250 FPS (1536 SPF)
Compression mode : Lossy
Delay relative to video : 900 ms
Stream size : 200 MiB (4%)
Title : English
Language : English
Service kind : Complete Main
Default : No
Forced : No
Text #1
ID : 4
Format : UTF-8
Codec ID : S_TEXT/UTF8
Codec ID/Info : UTF-8 Plain Text
Duration : 42 min 41 s
Bit rate : 111 b/s
Count of elements : 480
Stream size : 34.9 KiB (0%)
Language : Russian
Default : No
Forced : No
Text #2
ID : 5
Format : UTF-8
Codec ID : S_TEXT/UTF8
Codec ID/Info : UTF-8 Plain Text
Duration : 43 min 25 s
Bit rate : 67 b/s
Count of elements : 841
Stream size : 21.5 KiB (0%)
Title : Closed Caption
Language : English
Default : No
Forced : No-General
Unique ID : 139927786480394037153712849152333138965 (0x69451C84EF999AA3BFCA338A79254C15)
Complete name : Buffy (2002) s07e02 - Ты не заслуживаешь меня.mkv
Format : Matroska
Format version : Version 4
File size : 1.69 GiB
Duration : 42 min 47 s
Overall bit rate mode : Variable
Overall bit rate : 5 637 kb/s
Encoded date : UTC 2018-10-27 14:34:19
Writing application : mkvmerge v28.1.0 ('Morning Child') 64-bit
Writing library : libebml v1.3.6 + libmatroska v1.4.9
Video
ID : 1
Format : AVC
Format/Info : Advanced Video Codec
Format profile : [email protected]
Format settings : CABAC / 4 Ref Frames
Format settings, CABAC : Yes
Format settings, ReFrames : 4 frames
Codec ID : V_MPEG4/ISO/AVC
Duration : 42 min 47 s
Bit rate mode : Variable
Bit rate : 4 867 kb/s
Maximum bit rate : 15.0 Mb/s
Width : 1 920 pixels
Height : 1 080 pixels
Display aspect ratio : 16:9
Frame rate mode : Constant
Frame rate : 23.976 (24000/1001) FPS
Color space : YUV
Chroma subsampling : 4:2:0
Bit depth : 8 bits
Scan type : Progressive
Bits/(Pixel*Frame) : 0.098
Stream size : 1.45 GiB (86%)
Default : Yes
Forced : No
Color range : Limited
Color primaries : BT.709
Transfer characteristics : BT.709
Matrix coefficients : BT.709
Audio #1
ID : 2
Format : MPEG Audio
Format version : Version 1
Format profile : Layer 3
Format settings : Joint stereo / MS Stereo
Codec ID : A_MPEG/L3
Codec ID/Hint : MP3
Duration : 42 min 46 s
Bit rate mode : Constant
Bit rate : 128 kb/s
Channel(s) : 2 channels
Sampling rate : 48.0 kHz
Frame rate : 41.667 FPS (1152 SPF)
Compression mode : Lossy
Stream size : 39.2 MiB (2%)
Language : Russian
Default : Yes
Forced : No
Audio #2
ID : 3
Format : E-AC-3
Format/Info : Enhanced AC-3
Commercial name : Dolby Digital Plus
Codec ID : A_EAC3
Duration : 42 min 47 s
Bit rate mode : Constant
Bit rate : 640 kb/s
Channel(s) : 6 channels
Channel layout : L R C LFE Ls Rs
Sampling rate : 48.0 kHz
Frame rate : 31.250 FPS (1536 SPF)
Compression mode : Lossy
Stream size : 196 MiB (11%)
Language : English
Service kind : Complete Main
Default : No
Forced : No
Text #1
ID : 4
Format : UTF-8
Codec ID : S_TEXT/UTF8
Codec ID/Info : UTF-8 Plain Text
Duration : 42 min 9 s
Bit rate : 114 b/s
Count of elements : 513
Stream size : 35.4 KiB (0%)
Language : Russian
Default : No
Forced : No
Text #2
ID : 5
Format : UTF-8
Codec ID : S_TEXT/UTF8
Codec ID/Info : UTF-8 Plain Text
Duration : 42 min 38 s
Bit rate : 74 b/s
Count of elements : 604
Stream size : 23.4 KiB (0%)
Language : English
Default : No
Forced : No

Доп.инфо, релиз, озвучка:

-Видео: Оригинальные WEB-DL 1080p Amazon
Синхронизация звука и субтитров - Figli
Oзвучкa:
1-2 сезоны - ОРТ
3-5 сезоны - РенТВ
6-7 сезоны - ТВ3-
-Скриншоты:


Смотреть онлайн

[trackeroc.org].32765.torrent  Магнет ссылка
Torrent: Registered   [ 2021-03-28 10:09 ]

Скачать торрент

2 MB

Status: checked
Completed: 51 times
Size: 333.11 GB
 

www.trackeroc.ru (28-мар-21)

Similar torrent
Forum Topic Author Size
Зарубежные сериалы Баффи - истребительница вампиров / Buffy the Vampire Slayer (1997-2003) WEB-DLRip (сезон 1-7, серии 1-144 из 144) ОРТ, РенТВ, ТВ3 Pro100Moder 98.25 GB
XBox 360E | Игры Buffy the Vampire Slayer / Баффи: Истребительница Вампиров [PAL / ENG] [XBox] Pro100Moder 1.05 GB

_________________
[Profile] [PM]
Display posts from previous:    
Reply to topic

The time now is: Today 20:41

All times are GMT + 4 Hours



You cannot post new topics in this forum
You cannot reply to topics in this forum
You cannot edit your posts in this forum
You cannot delete your posts in this forum
You cannot vote in polls in this forum
You cannot attach files in this forum
You can download files in this forum