Фрики: Ты один из нас / Freaks - Du bist eine von uns / Freaks: You're One of Us (2020) WEBRip [MVO] скачать торрент

Reply to topic

DL-List and Torrent activity [Update пиров]
Size:  1.75 GB   |    Registered:  15 days   |    Completed:  0 times

Seeder not seen: Never

 
 
 
 
 
Author Message

Captain ®

Longevity: 6 years 5 months

Posts: 2560

Location: Earth


Post 16-Sep-2020 05:12

[Quote]

Фрики: Ты один из нас / Freaks - Du bist eine von uns / Freaks: You're One of Us (2020) WEBRip - Производство: Германия
Жанр: Фантастика, фэнтези, боевик, драма
Режиссер: Феликс Биндер
Продюсер: Флориан Шнайдер
Актеры: Финнлей Бергер, Тельма Буабенг, Гиза Флаке, Корнелия Грёшель, Ральф Херфорт, Нина Кунцендорф, Фредерик Линкеманн, Тим Оливер Шульц, Вотан Вильке Мёринг
Описание:
Венди - простая повариха из рабочего класса. Однажды она обнаруживает в себе суперспособности, которые подавлялись из-за применения лекарств, а также узнаёт, что в мире есть другие обладатели похожей силы. Более того, новоиспечённым супергероям теперь предстоит распутать глобальный заговор.

Дата мировой премьеры: 2 сентября 2020
Релиз от: Rip by vitolinform
Продолжительность: 01:32:40
Качество видео: WEBRip
Перевод: Многоголосый любительский (Mallorn)
Субтитры: Русские, английские - отдельным файлом
Видео: Xvid, 720x360, ~1800 kbps
Аудио 1: AC3, 6 ch, 448 kbps | Русский (MVO, Mallorn)
Аудио 2: AC3, 6 ch, 448 kbps | Немецкий - отдельно

MediaInfo:

Общее
Полное имя : C:\Friki.Ty.odin.iz.nas.2020.WEBRip\Friki.Ty.odin.iz.nas.2020.WEBRip.avi
Формат : AVI
Формат/Информация : Audio Video Interleave
Размер файла : 1,46 Гбайт
Продолжительность : 1 ч. 32 м.
Общий поток : 2 258 Кбит/сек
Название фильма : Фрики: Ты один из нас / Freaks - Du bist eine von uns (2020) WEBRip
Режиссёр : Феликс Биндер / Felix Binder
Жанр : Фантастика, фэнтези, боев
Программа кодирования : VirtualDubMod 1.5.10.2 (build 2542/release)
Формат оригинала/Имя : Художественный фильм
Авторское право : Германия, Neteflix
Примечание : Rip by vitolinform
Видео
Идентификатор : 0
Формат : MPEG-4 Visual
Профиль формата : Advanced [email protected]
Настройки формата : BVOP1 / Custom Matrix
Параметр BVOP формата : 1
Параметр QPel формата : Нет
Параметр GMC формата : Без точки перехода
Параметр матрицы формата : Выборочная
Идентификатор кодека : XVID
Идентификатор кодека/Подсказка : XviD
Продолжительность : 1 ч. 32 м.
Битрейт : 1 800 Кбит/сек
Ширина : 720 пикселей
Высота : 360 пикселей
Соотношение сторон : 2,000
Частота кадров : 25,000 кадров/сек
Цветовое пространство : YUV
Субдискретизация насыщенности : 4:2:0
Битовая глубина : 8 бит
Тип развёртки : Прогрессивная
Метод сжатия : С потерями
Бит/(Пиксели*Кадры) : 0.278
Размер потока : 1,17 Гбайт (80%)
Библиотека кодирования : XviD 64
Аудио
Идентификатор : 1
Формат : AC-3
Формат/Информация : Audio Coding 3
Коммерческое название : Dolby Digital
Идентификатор кодека : 2000
Продолжительность : 1 ч. 32 м.
Вид битрейта : Постоянный
Битрейт : 448 Кбит/сек
Каналы : 6 каналов
Channel layout : L R C LFE Ls Rs
Частота : 48,0 КГц
Частота кадров : 31,250 кадров/сек (1536 SPF)
Метод сжатия : С потерями
Размер потока : 297 Мбайт (20%)
Выравнивание : Разделение по промежуткам
Продолжительность промежутка : 40 мс. (1,00 видеокадр)
Время предзагрузки промежутка : 500 мс.
Заголовок : Mallorn (MVO, Mallorn)
Service kind : Complete Main
==================================================================================
Общее
Полное имя : C:\Friki.Ty.odin.iz.nas.2020.WEBRip\Friki.Ty.odin.iz.nas.2020.WEBRip_germ.ac3
Формат : AC-3
Формат/Информация : Audio Coding 3
Коммерческое название : Dolby Digital
Размер файла : 297 Мбайт
Продолжительность : 1 ч. 32 м.
Режим общего битрейта : Постоянный
Общий поток : 448 Кбит/сек
Аудио
Формат : AC-3
Формат/Информация : Audio Coding 3
Коммерческое название : Dolby Digital
Продолжительность : 1 ч. 32 м.
Вид битрейта : Постоянный
Битрейт : 448 Кбит/сек
Каналы : 6 каналов
Channel layout : L R C LFE Ls Rs
Частота : 48,0 КГц
Частота кадров : 31,250 кадров/сек (1536 SPF)
Метод сжатия : С потерями
Размер потока : 297 Мбайт (100%)
Service kind : Complete Main
-Скриншоты:


Смотреть онлайн

[trackeroc.org].31824.torrent  Магнет ссылка
Torrent: Registered   [ 2020-09-16 05:12 ]

Скачать торрент

19 KB

Status: checked
Completed: 17 times
Size: 1.75 GB
 

trackeroc.org (16-сен-20)

Similar torrent
Forum Topic Author Size
Российские сериалы Один день, одна ночь [серии 1-4 из 4] (Петр Амелин) [2015, Детектив, SATRip] Матвей 2.35 GB

_________________
[Profile] [PM]
Display posts from previous:    
Reply to topic

The time now is: Today 10:50

All times are GMT + 4 Hours



You cannot post new topics in this forum
You cannot reply to topics in this forum
You cannot edit your posts in this forum
You cannot delete your posts in this forum
You cannot vote in polls in this forum
You cannot attach files in this forum
You can download files in this forum