Галерея Disney: Мандалорец / Disney Gallery: Star Wars: The Mandalorian (2020) WEBRip [H.264/1080p] (сезон 1, серии 1-8 из 8) скачать торрент

Reply to topic

DL-List and Torrent activity [Update пиров]
Size:  13.45 GB   |    Registered:  15 days   |    Completed:  0 times
Seeders:  2  [  0 KB/s  ]   Show peers in full details
 
 
 
 
Author Message

Captain ®

Longevity: 6 years 2 months

Posts: 2462

Location: Earth


Post 22-Jun-2020 22:49

[Quote]

Галерея Disney: Мандалорец / Disney Gallery: Star Wars: The Mandalorian - Производство: США
Жанр: Документальный
Режиссер: Брэд Барух
Описание:
Создатели сериала "Мандалорец" вспоминают процесс работы над проектом и делятся интересными фактами связанными с производством одного из самых успешных сериалов последних лет. Данный увлекательный документальный сериал предлагает зрителям окунуться полностью с головой в процесс производства одного из самых популярных сериалов нашего современного времени. Создателям сценария удастся показать зрителям, как именно они вынуждены были снимать самые сложные сцены в сериале, как именно им необходимо было работать с огромном количеством всевозможных эффектов.

Дата мировой премьеры: 4 мая 2020
Продолжительность: ~00:32:00 серия
Качество видео: WEBRip
Перевод: Многоголосый профессиональный (HDRezka Studio)
Субтитры: русские (hardsub на надписи)
Видео: AVC/H.264, 1920x1080 (16:9), ~9135 Kbps
Аудио: AC3, 2 ch, 192 Kbps - русский

MediaInfo:

Общее
Уникальный идентификатор : 284382159469244910385929290679007756564 (0xD5F202FBF63ACDF8C3E04FBB457AC114)
Полное имя : Disney.Gallery.Star.Wars.the.Mandalorian (2020)\Disney.Gallery.Star.Wars.the.Mandalorian.S01E01.WEBRip.1080p.mkv
Формат : Matroska
Версия формата : Version 4
Размер файла : 2,10 Гбайт
Продолжительность : 32 м. 19 с.
Режим общего битрейта : Переменный
Общий поток : 9 313 Кбит/сек
Дата кодирования : UTC 2020-05-26 22:21:18
Программа кодирования : mkvmerge v28.2.0 ('The Awakening') 64-bit
Библиотека кодирования : libebml v1.3.6 + libmatroska v1.4.9
Видео
Идентификатор : 1
Формат : AVC
Формат/Информация : Advanced Video Codec
Профиль формата : [email protected]
Настройки формата : CABAC / 1 Ref Frames
Параметр CABAC формата : Да
Параметр RefFrames формата : 1 кадр
Идентификатор кодека : V_MPEG4/ISO/AVC
Продолжительность : 32 м. 16 с.
Вид битрейта : Переменный
Битрейт : 9 134 Кбит/сек
Максимальный битрейт : 2 000 Кбит/сек
Ширина : 1 920 пикселей
Высота : 1 080 пикселей
Соотношение сторон : 16:9
Режим частоты кадров : Постоянный
Частота кадров : 23,976 (24000/1001) кадра/сек
Цветовое пространство : YUV
Субдискретизация насыщенности : 4:2:0
Битовая глубина : 8 бит
Тип развёртки : Прогрессивная
Бит/(Пиксели*Кадры) : 0.184
Размер потока : 2,06 Гбайт (98%)
Default : Да
Forced : Нет
Аудио
Идентификатор : 2
Формат : AC-3
Формат/Информация : Audio Coding 3
Коммерческое название : Dolby Digital
Идентификатор кодека : A_AC3
Продолжительность : 32 м. 19 с.
Вид битрейта : Постоянный
Битрейт : 192 Кбит/сек
Каналы : 2 канала
Channel layout : L R
Частота : 48,0 КГц
Частота кадров : 31,250 кадров/сек (1536 SPF)
Метод сжатия : С потерями
Размер потока : 44,4 Мбайт (2%)
Язык : Russian
Service kind : Complete Main
Default : Да
Forced : Нет
-Скриншоты:


Смотреть онлайн

[trackeroc.org].30987.torrent  Магнет ссылка
Torrent: Registered   [ 2020-06-22 22:49 ]

Скачать торрент

69 KB

Status: checked
Completed: 15 times
Size: 13.45 GB
 

Admin (23-июн-20)

Similar torrent
Forum Topic Author Size
Пасьянсы, карточные игры Карточные пасьянсы: Картинная Галерея, Книга, Коврик (Тюльпан), Косынка, Дядя Дима [RUS/ENG] (2020) (2.2) Admin 174 MB
Фантастика ,Фэнтези Мандалорец / The Mandalorian (2019) WEB-DLRip [H.264/1080p-LQ] AlexFilm Captain 11.65 GB
Зарубежные сериалы Мандалорец / The Mandalorian (2019) WEBRip (сезон 1, серии 1-8 из 8) HDRezka Studio Captain 3.31 GB
Зарубежные сериалы Мандалорец / The Mandalorian (2019) WEBRip [H.264/1080p-LQ] (сезон 1, серии 1-8 из 8) Lostfilm Captain 16.7 GB

_________________
[Profile] [PM]
Display posts from previous:    
Reply to topic

The time now is: Today 16:01

All times are GMT + 4 Hours



You cannot post new topics in this forum
You cannot reply to topics in this forum
You cannot edit your posts in this forum
You cannot delete your posts in this forum
You cannot vote in polls in this forum
You cannot attach files in this forum
You can download files in this forum