Глубокое синее море / Deep Blue Sea (1999) BDRip скачать торрент

Reply to topic

DL-List and Torrent activity [Update пиров]
Size:  2.18 GB   |    Registered:  2 months 1 day   |    Completed:  0 times

Seeder not seen: Never

 
 
 
 
 
Author Message

Moder ®

Longevity: 6 years 7 months

Posts: 2540

Location: Earth


Post 27-Sep-2020 10:43

[Quote]

Глубокое синее море / Deep Blue Sea «Больше. Умнее. Быстрее. Злее»- Производство: США, Австралия / Groucho III Film Partnership, Riche-Ludwig Productions, Village Roadshow Pictures, Warner Bros. Pictures
Жанр: Ужасы, фантастика, боевик
Режиссер: Ренни Харлин
Актеры: Томас Джейн, Саффрон Берроуз, Сэмюэл Л. Джексон, Жаклин МакКензи, Майкл Рапапорт, Стеллан Скарсгард, ЭлЭл Кул Джей, Аида Туртурро, Кристос, Дэниэл Рей
Описание:
Ученые подводной лаборатории «Акватика», разрабатывая препарат от болезни Альцгеймера, находят способ генетического увеличения мозга подопытных акул. Агрессивные и злобные хищники превращаются в думающих монстров-убийц, способных перехитрить своих создателей. Герои фильма пытаются справиться с разъяренными хищниками. Но спастись от острых челюстей огромных и умных акул практически невозможно…

Рейтинг MPAA: R (лицам до 17 лет обязательно присутствие взрослого)
Дата мировой премьеры: 26 июля 1999
Цифровой релиз: 31 марта 2000
Продолжительность: 01:45:00
Качество видео: BDRip
Перевод: Дублированный, авторский
Субтитры: Отсутствуют
Видео: MPEG-4 AVC/H.264, 1024x424, ~2337 Кбит/сек
Аудио 1: Русский, AC3 5.1, 448 Кбит/сек, 48 kHz (Дублированный, МОСФИЛЬМ-мастер, 2000)
Аудио 2: Русский, AC3 2.0, 192 Кбит/сек, 48 kHz (Авторский, А.Гаврилов)

MediaInfo:

General
Unique ID : 189121175455652877738400361356950425529 (0x8E4769DAA99B91F885B2526ECB3ACFB9)
Complete name : Глубокое синее море.mkv
Format : Matroska
Format version : Version 4 / Version 2
File size : 2.18 GiB
Duration : 1h 45mn
Overall bit rate : 2 977 Kbps
Encoded date : UTC 2015-01-12 22:10:57
Writing application : mkvmerge v7.0.0 ('Where We Going') 32bit built on Jun 9 2014 15:08:34
Writing library : libebml v1.3.0 + libmatroska v1.4.1
DURATION : 01:45:00.384000000
NUMBER_OF_FRAMES : 196887
NUMBER_OF_BYTES : 151209216
_STATISTICS_WRITING_APP : mkvmerge v7.0.0 ('Where We Going') 32bit built on Jun 9 2014 15:08:34
_STATISTICS_WRITING_DATE_UTC : 2015-01-12 22:10:57
_STATISTICS_TAGS : BPS DURATION NUMBER_OF_FRAMES NUMBER_OF_BYTES
Video
ID : 1
Format : AVC
Format/Info : Advanced Video Codec
Format profile : [email protected]
Format settings, CABAC : Yes
Format settings, ReFrames : 8 frames
Codec ID : V_MPEG4/ISO/AVC
Duration : 1h 45mn
Bit rate : 2 337 Kbps
Width : 1 024 pixels
Height : 424 pixels
Display aspect ratio : 2.40:1
Frame rate mode : Constant
Frame rate : 23.976 fps
Color space : YUV
Chroma subsampling : 4:2:0
Bit depth : 8 bits
Scan type : Progressive
Bits/(Pixel*Frame) : 0.224
Stream size : 1.67 GiB (77%)
Title : Deep Blue Sea
Writing library : x264 core 125 r2208 d9d2288
Encoding settings : cabac=1 / ref=8 / deblock=1:-1:-1 / analyse=0x3:0x133 / me=umh / subme=9 / psy=1 / psy_rd=1.00:0.10 / mixed_ref=1 / me_range=32 / chroma_me=1 / trellis=2 / 8x8dct=1 / cqm=0 / deadzone=21,11 / fast_pskip=0 / chroma_qp_offset=-3 / threads=6 / lookahead_threads=1 / sliced_threads=0 / nr=0 / decimate=1 / interlaced=0 / bluray_compat=0 / constrained_intra=0 / bframes=3 / b_pyramid=2 / b_adapt=2 / b_bias=0 / direct=3 / weightb=1 / open_gop=0 / weightp=2 / keyint=250 / keyint_min=25 / scenecut=40 / intra_refresh=0 / rc_lookahead=60 / rc=2pass / mbtree=1 / bitrate=2337 / ratetol=1.0 / qcomp=0.60 / qpmin=0 / qpmax=69 / qpstep=4 / cplxblur=20.0 / qblur=0.5 / ip_ratio=1.40 / aq=1:1.00
Language : English
Default : Yes
Forced : No
Audio #1
ID : 2
Format : AC-3
Format/Info : Audio Coding 3
Mode extension : CM (complete main)
Format settings, Endianness : Big
Codec ID : A_AC3
Duration : 1h 45mn
Bit rate mode : Constant
Bit rate : 448 Kbps
Channel(s) : 6 channels
Channel positions : Front: L C R, Side: L R, LFE
Sampling rate : 48.0 KHz
Bit depth : 16 bits
Compression mode : Lossy
Stream size : 336 MiB (15%)
Title : Дубляж
Language : Russian
Default : Yes
Forced : No
Audio #2
ID : 3
Format : AC-3
Format/Info : Audio Coding 3
Mode extension : CM (complete main)
Format settings, Endianness : Big
Codec ID : A_AC3
Duration : 1h 45mn
Bit rate mode : Constant
Bit rate : 192 Kbps
Channel(s) : 2 channels
Channel positions : Front: L R
Sampling rate : 48.0 KHz
Bit depth : 16 bits
Compression mode : Lossy
Stream size : 144 MiB (6%)
Title : Авторский, А.Гаврилов
Language : Russian
Default : No
Forced : No
-Скриншоты:


Смотреть онлайн

[trackeroc.org].31932.torrent  Магнет ссылка
Torrent: Registered   [ 2020-09-27 10:50 ]

Скачать торрент

12 KB

Status: checked
Completed: 82 times
Size: 2.18 GB
 

trackeroc.org (27-сен-20), Saiko (16-окт-20)

Similar torrent
Forum Topic Author Size
Ужасы ,мистика ,триллеры Глубокое синее море 2 / Deep Blue Sea 2 (2018) HDRip Admin 1.46 GB
Ужасы ,мистика ,триллеры Глубокое синее море 3 / Deep Blue Sea 3 (2020) HDRip trackeroc.org 1.46 GB
Квесты, я ищу, Поиск предметов, Hidden Object Sea of Lies 5: Beneath the Surface Collectors Edition/Море лжи 5: Тайны глубин (2016) (Nevosoft) (RUS) [P] HOPE 791 MB
Квесты, я ищу, Поиск предметов, Hidden Object Море лжи 6: Риф Левиафана КИ / Sea of Lies 6: Leviathan Reef CE (2016) (Big Fish Games) (RUS) [P] HOPE 950 MB

_________________
[Profile] [PM]
Display posts from previous:    
Reply to topic

The time now is: Today 14:11

All times are GMT + 4 Hours



You cannot post new topics in this forum
You cannot reply to topics in this forum
You cannot edit your posts in this forum
You cannot delete your posts in this forum
You cannot vote in polls in this forum
You cannot attach files in this forum
You can download files in this forum