Хелтер-скелтер / Heruta sukeruta (2012) HDRip [DVO] скачать торрент

Reply to topic

DL-List and Torrent activity [Update пиров]
Size:  1.46 GB   |    Registered:  29 days   |    Completed:  0 times
Seeders:  3  [  0 KB/s  ]   Show peers in full details
 
 
 
 
Author Message

Captain ®

Longevity: 6 years 3 months

Posts: 2460

Location: Earth


Post 08-Jul-2020 08:27

[Quote]

Хелтер-скелтер / Heruta sukeruta / Helter Skelter - Производство: Япония / Asmik Ace Entertainment, Cine Bazar, Happinet, Lucky Star
Жанр: Ужасы, драма
Режиссер: Мика Нинагава
Актеры: Эрика Савадзири, Ёсукэ Кубодзука, Рири Фрэнки, Кико Мидзухара, Миэко Харада, Каори Момои, Нао Омори, Аннэ Судзуки, Сусуму Тэрадзима, Синобу Тэрадзима
Описание:
Ририко — супермодель и икона красоты. Как и положено, она эгоистична и привыкла всегда получать желаемое, чем бы оно ни было. Но у нее есть секрет, о котором никто не должен знать: ее красота — результат множества пластических операций, сделанных в частной вип-клинике. Однажды Ририко обнаруживает, что побочные эффекты от хирургических вмешательств постепенно проявляются, и тогда ее размеренная жизнь начинает рушиться, доводя фотомодель до безумия.

Продолжительность: 02:06:56
Качество видео: HDRip
Перевод: Двуголосый любительский (den904, Deadsno)
Субтитры: Отсутствуют
Видео: Xvid, 720x384, ~1445 Kbps
Аудио 1: AC3, 2 ch, 192 Kbps, русский

MediaInfo:

Полное имя : Helter.Skelter.2012.L2.HDRip.1.46GB.avi
Формат : AVI
Формат/Информация : Audio Video Interleave
Размер файла : 1,46 Гбайт
Продолжительность : 2 ч. 6 м.
Общий поток : 1647 Кбит/сек
Программа кодирования : VirtualDubMod 1.5.10.2 (build 2540/release)
Библиотека кодирования : VirtualDubMod build 2540/release
Видео
Идентификатор : 0
Формат : MPEG-4 Visual
Профиль формата : Advanced [email protected]
Параметр BVOP формата : 2
Параметр QPel формата : Нет
Параметр GMC формата : Без точки перехода
Параметр матрицы формата : Default (MPEG)
Идентификатор кодека : XVID
Идентификатор кодека/Подсказка : XviD
Продолжительность : 2 ч. 6 м.
Битрейт : 1446 Кбит/сек
Ширина : 720 пикселей
Высота : 384 пикселя
Соотношение сторон : 1,85:1
Частота кадров : 23,976 кадра/сек
Цветовое пространство : YUV
Субдискретизация насыщенности : 4:2:0
Битовая глубина : 8 бит
Тип развёртки : Прогрессивная
Метод сжатия : С потерями
Бит/(Пиксели*Кадры) : 0.218
Размер потока : 1,28 Гбайт (88%)
Библиотека кодирования : XviD 1.2.1 (UTC 2008-12-04)
Аудио
Идентификатор : 1
Формат : AC-3
Формат/Информация : Audio Coding 3
Расширение режима : CM (complete main)
Параметр Endianness формата : Big
Идентификатор кодека : 2000
Продолжительность : 2 ч. 6 м.
Вид битрейта : Постоянный
Битрейт : 192 Кбит/сек
Каналы : 2 канала
Расположение каналов : Front: L R
Частота : 48,0 КГц
Битовая глубина : 16 бит
Метод сжатия : С потерями
Размер потока : 174 Мбайт (12%)
Выравнивание : Разделение по промежуткам
Продолжительность промежутка : 42 мс. (1,00 видеокадр)
Время предзагрузки промежутка : 500 мс.
-Скриншоты:


Смотреть онлайн

[trackeroc.org].31124.torrent  Магнет ссылка
Torrent: Registered   [ 2020-07-08 08:27 ]

Скачать торрент

15 KB

Status: checked
Completed: 10 times
Size: 1.46 GB
 

Admin (15-июл-20)


_________________
[Profile] [PM]
Display posts from previous:    
Reply to topic

The time now is: Today 02:45

All times are GMT + 4 Hours



You cannot post new topics in this forum
You cannot reply to topics in this forum
You cannot edit your posts in this forum
You cannot delete your posts in this forum
You cannot vote in polls in this forum
You cannot attach files in this forum
You can download files in this forum