Киллеры / Killers (2010) BDRip [H.265/1080p] [10-bit] скачать торрент

Reply to topic

DL-List and Torrent activity [Update пиров]
Size:  5.89 GB   |    Registered:  1 month 16 days   |    Completed:  0 times

Seeder not seen: Never

 
 
 
 
 
Author Message

Captain ®

Longevity: 6 years 6 months

Posts: 2561

Location: Earth


Post 08-Sep-2020 10:48

[Quote]

Киллеры / Killers «Их идеальный брак могут спасти только...»- Производство: США / Lionsgate
Жанр: боевик, триллер, мелодрама, комедия
Режиссер: Роберт Лукетич
Продюсер: Скотт Аверсано, Джейсон Голдберг, Майк Карц
Актеры: Эштон Кутчер, Кэтрин Хайгл, Том Селлек, Кэтрин О’Хара, Кэтрин Уинник, Кевин Сасмэн, Лиза Энн Уолтер, Кейси Уилсон, Роб Риггл, Мартин Мулл
Описание:
Спенсер был безжалостным наемным убийцей, грозой мирового терроризма и перестал им быть, когда встретил Джен в лифте курортного отеля... Спустя три года они - обычная идеальная молодая пара, проживающая в американском пригороде. Но их безоблачному счастью приходит конец, когда за голову Спенсера объявляют награду в $20 млн, и все глубоко законспирированные профессионалы-киллеры начинают за ним охоту. Сумеют ли герои «угадать» убийц среди своих соседей, коллег, знакомых и друзей, чтобы уцелеть? Простит ли Джен мужа за «убийственную правду»? И кто «заказал» Спенсера?

Возраст: 16+ (зрителям, достигшим 16 лет)
Рейтинг MPAA: PG-13 (детям до 13 лет просмотр нежелателен)
Релиз от: OldGamer
Продолжительность: 01:40:23
Качество видео: BDRip
Перевод: Дублированный, авторский одноголосый
Субтитры: Русские полные (SRT), English full (SRT, SDH)
Видео: HEVC/H.265, 1920x816, ~6482 Kbps
Аудио1: AC3, 6 ch, 448 Kbps - русский Дублированный
Аудио2: AC3, 6 ch, 640 Kbps - русский Авторский (Антон Карповский)
Аудио3: AC3, 2 ch, 192 Kbps - украинский Дублированный
Аудио4: AC3, 6 ch, 640 Kbps - english Original

MediaInfo:

x265 [info]: frame I: 609, Avg QP:18.13 kb/s: 17723.14
x265 [info]: frame P: 29681, Avg QP:19.79 kb/s: 11210.51
x265 [info]: frame B: 114137, Avg QP:21.01 kb/s: 5191.35
x265 [info]: Weighted P-Frames: Y:4.3% UV:3.5%
x265 [info]: Weighted B-Frames: Y:3.6% UV:2.6%
x265 [info]: consecutive B-frames: 5.1% 13.2% 7.0% 25.0% 12.8% 24.0% 3.7% 3.4% 1.5% 1.0% 0.9% 1.5% 0.3% 0.2% 0.3%
x265 [info]: encoded 144427 frames in 94040.98s (1.54 fps), 6481.18 kb/s, Avg QP:20.74
Формат : Matroska
Версия формата : Version 4
Размер файла : 5,89 Гбайт
Продолжительность : 1 ч. 40 м.
Общий поток : 8 405 Кбит/сек
Название фильма : Киллеры.Killers.2010.BDRip-HEVC.1080p
Дата кодирования : UTC 2020-09-05 18:02:54
Программа кодирования : mkvmerge v49.0.0 ('Sick Of Losing Soulmates') 64-bit
Библиотека кодирования : libebml v1.4.0 + libmatroska v1.6.1
Видео
Идентификатор : 1
Формат : HEVC
Формат/Информация : High Efficiency Video Coding
Профиль формата : Main [email protected]@High
Идентификатор кодека : V_MPEGH/ISO/HEVC
Продолжительность : 1 ч. 40 м.
Битрейт : 6 482 Кбит/сек
Ширина : 1 920 пикселей
Высота : 816 пикселей
Соотношение сторон : 2,35:1
Режим частоты кадров : Постоянный
Частота кадров : 23,976 (24000/1001) кадра/сек
Цветовое пространство : YUV
Субдискретизация насыщенности : 4:2:0
Битовая глубина : 10 бит
Бит/(Пиксели*Кадры) : 0.173
Размер потока : 4,55 Гбайт (77%)
Заголовок : Killers / Rip by OldGamer
Библиотека кодирования : x265 3.4+4-g3ae3d7116:[Windows][GCC 10.2.0][64 bit] 10bit
Настройки программы : cpuid=1111039 / frame-threads=3 / numa-pools=8 / wpp / no-pmode / no-pme / no-psnr / no-ssim / log-level=2 / input-csp=1 / input-res=1920x816 / interlace=0 / total-frames=144427 / level-idc=41 / high-tier=1 / uhd-bd=0 / ref=5 / no-allow-non-conformance / no-repeat-headers / annexb / no-aud / no-hrd / info / hash=0 / no-temporal-layers / open-gop / min-keyint=23 / keyint=240 / gop-lookahead=0 / bframes=14 / b-adapt=2 / b-pyramid / bframe-bias=0 / rc-lookahead=60 / lookahead-slices=0 / scenecut=40 / hist-scenecut=0 / radl=0 / no-splice / no-intra-refresh / ctu=64 / min-cu-size=8 / rect / amp / max-tu-size=32 / tu-inter-depth=4 / tu-intra-depth=4 / limit-tu=1 / rdoq-level=2 / dynamic-rd=0.00 / no-ssim-rd / signhide / no-tskip / nr-intra=0 / nr-inter=0 / no-constrained-intra / no-strong-intra-smoothing / max-merge=5 / limit-refs=3 / no-limit-modes / me=3 / subme=7 / merange=57 / temporal-mvp / no-frame-dup / no-hme / weightp / weightb / no-analyze-src-pics / deblock=-3:-3 / no-sao / no-sao-non-deblock / rd=6 / selective-sao=0 / no-early-skip / rskip / no-fast-intra / no-tskip-fast / no-cu-lossless / b-intra / no-splitrd-skip / rdpenalty=0 / psy-rd=2.00 / psy-rdoq=1.00 / no-rd-refine / no-lossless / cbqpoffs=0 / crqpoffs=0 / rc=crf / crf=19.8 / qcomp=0.60 / qpstep=4 / stats-write=0 / stats-read=0 / vbv-maxrate=50000 / vbv-bufsize=50000 / vbv-init=0.9 / crf-max=0.0 / crf-min=0.0 / ipratio=1.40 / pbratio=1.30 / aq-mode=1 / aq-strength=1.00 / no-cutree / zone-count=1 / zones: / start-frame=134146 / end-frame=144407 / qp=36 / no-strict-cbr / qg-size=32 / no-rc-grain / qpmax=69 / qpmin=0 / no-const-vbv / sar=1 / overscan=0 / videoformat=5 / range=0 / colorprim=2 / transfer=2 / colormatrix=2 / chromaloc=0 / display-window=0 / cll=0,0 / min-luma=0 / max-luma=1023 / log2-max-poc-lsb=8 / vui-timing-info / vui-hrd-info / slices=1 / no-opt-qp-pps / no-opt-ref-list-length-pps / no-multi-pass-opt-rps / scenecut-bias=0.00 / hist-threshold=0.01 / no-opt-cu-delta-qp / no-aq-motion / no-hdr10 / no-hdr10-opt / no-dhdr10-opt / no-idr-recovery-sei / analysis-reuse-level=0 / analysis-save-reuse-level=0 / analysis-load-reuse-level=0 / scale-factor=0 / refine-intra=0 / refine-inter=0 / refine-mv=1 / refine-ctu-distortion=0 / no-limit-sao / ctu-info=0 / no-lowpass-dct / refine-analysis-type=0 / copy-pic=1 / max-ausize-factor=1.0 / no-dynamic-refine / no-single-sei / no-hevc-aq / no-svt / no-field / qp-adaptation-range=1.00 / no-scenecut-aware-qpconformance-window-offsets / right=0 / bottom=0 / decoder-max-rate=0
Язык : English
Default : Да
Forced : Нет
Аудио #1
Идентификатор : 2
Формат : AC-3
Формат/Информация : Audio Coding 3
Коммерческое название : Dolby Digital
Идентификатор кодека : A_AC3
Продолжительность : 1 ч. 40 м.
Вид битрейта : Постоянный
Битрейт : 448 Кбит/сек
Каналы : 6 каналов
Channel layout : L R C LFE Ls Rs
Частота : 48,0 КГц
Частота кадров : 31,250 кадров/сек (1536 SPF)
Метод сжатия : С потерями
Размер потока : 322 Мбайт (5%)
Заголовок : DUB
Язык : Russian
Service kind : Complete Main
Default : Да
Forced : Нет
Аудио #2
Идентификатор : 3
Формат : AC-3
Формат/Информация : Audio Coding 3
Коммерческое название : Dolby Digital
Идентификатор кодека : A_AC3
Продолжительность : 1 ч. 40 м.
Вид битрейта : Постоянный
Битрейт : 640 Кбит/сек
Каналы : 6 каналов
Channel layout : L R C LFE Ls Rs
Частота : 48,0 КГц
Частота кадров : 31,250 кадров/сек (1536 SPF)
Метод сжатия : С потерями
Размер потока : 460 Мбайт (8%)
Заголовок : VO (Антон Карповский)
Язык : Russian
Service kind : Complete Main
Default : Нет
Forced : Нет
Аудио #3
Идентификатор : 4
Формат : AC-3
Формат/Информация : Audio Coding 3
Коммерческое название : Dolby Digital
Идентификатор кодека : A_AC3
Продолжительность : 1 ч. 40 м.
Вид битрейта : Постоянный
Битрейт : 192 Кбит/сек
Каналы : 2 канала
Channel layout : L R
Частота : 48,0 КГц
Частота кадров : 31,250 кадров/сек (1536 SPF)
Метод сжатия : С потерями
Размер потока : 138 Мбайт (2%)
Заголовок : DUB
Язык : Ukrainian
Service kind : Complete Main
Default : Нет
Forced : Нет
Аудио #4
Идентификатор : 5
Формат : AC-3
Формат/Информация : Audio Coding 3
Коммерческое название : Dolby Digital
Идентификатор кодека : A_AC3
Продолжительность : 1 ч. 40 м.
Вид битрейта : Постоянный
Битрейт : 640 Кбит/сек
Каналы : 6 каналов
Channel layout : L R C LFE Ls Rs
Частота : 48,0 КГц
Частота кадров : 31,250 кадров/сек (1536 SPF)
Метод сжатия : С потерями
Размер потока : 460 Мбайт (8%)
Язык : English
Service kind : Complete Main
Default : Нет
Forced : Нет
Текст #1
Идентификатор : 6
Формат : UTF-8
Идентификатор кодека : S_TEXT/UTF8
Идентификатор кодека/Информация : UTF-8 Plain Text
Продолжительность : 1 ч. 32 м.
Битрейт : 106 бит/сек
Count of elements : 1365
Размер потока : 72,7 Кбайт (0%)
Язык : Russian
Default : Нет
Forced : Нет
Текст #2
Идентификатор : 7
Формат : UTF-8
Идентификатор кодека : S_TEXT/UTF8
Идентификатор кодека/Информация : UTF-8 Plain Text
Продолжительность : 1 ч. 32 м.
Битрейт : 70 бит/сек
Count of elements : 1281
Размер потока : 47,6 Кбайт (0%)
Язык : English
Default : Нет
Forced : Нет
Текст #3
Идентификатор : 8
Формат : UTF-8
Идентификатор кодека : S_TEXT/UTF8
Идентификатор кодека/Информация : UTF-8 Plain Text
Продолжительность : 1 ч. 32 м.
Битрейт : 74 бит/сек
Count of elements : 1444
Размер потока : 50,8 Кбайт (0%)
Заголовок : SDH
Язык : English
Default : Нет
Forced : Нет
Меню
00:00:00.000 : en:00:00:00.000
00:09:51.841 : en:00:09:51.841
00:15:18.334 : en:00:15:18.334
00:22:40.025 : en:00:22:40.025
00:28:52.397 : en:00:28:52.397
00:36:06.122 : en:00:36:06.122
00:44:51.146 : en:00:44:51.146
00:51:27.918 : en:00:51:27.918
00:55:06.219 : en:00:55:06.219
01:01:50.623 : en:01:01:50.623
01:05:07.278 : en:01:05:07.278
01:13:39.123 : en:01:13:39.123
01:17:37.110 : en:01:17:37.110
01:21:38.768 : en:01:21:38.768
01:28:40.023 : en:01:28:40.023
01:31:40.828 : en:01:31:40.828
-Скриншоты:


Смотреть онлайн

[trackeroc.org].31771.torrent  Магнет ссылка
Torrent: Registered   [ 2020-09-08 10:48 ]

Скачать торрент

30 KB

Status: checked
Completed: 17 times
Size: 5.89 GB
 

Admin (08-сен-20), trackeroc.org (08-сен-20)


_________________
[Profile] [PM]
Display posts from previous:    
Reply to topic

The time now is: Today 09:10

All times are GMT + 4 Hours



You cannot post new topics in this forum
You cannot reply to topics in this forum
You cannot edit your posts in this forum
You cannot delete your posts in this forum
You cannot vote in polls in this forum
You cannot attach files in this forum
You can download files in this forum