Кукловоды / The Puppet Masters (1994) BDRip [H.264/720p] скачать торрент

Reply to topic

DL-List and Torrent activity [Update пиров]
Size:  5.3 GB   |    Registered:  23 days   |    Completed:  0 times

Seeder not seen: Never

 
 
 
 
 
Author Message

Captain ®

Longevity: 6 years 5 months

Posts: 2560

Location: Earth


Post 08-Sep-2020 11:08

[Quote]

Кукловоды / The Puppet Masters «Trust No-one»- Производство: США / Hollywood Pictures
Жанр: Ужасы, фантастика, триллер
Режиссер: Стюарт Орм
Актеры: Дональд Сазерленд, Эрик Тал, Джули Уорнер, Кит Дэвид, Уилл Пэттон, Ричард Белцер, Том Мэйсон, Яфет Котто, Джерри Бэммен, Сэм Андерсон
Описание:
По местному телеканалу одного небольшого городка в США проходит сообщение о том, что в окрестностях города совершил посадку НЛО. Спустя некоторое время тот же телеканал опровергает высказанную ранее информацию, представляя её как выдумку местных мальчишек. Тем не менее, сотрудники секретной службы направляются туда для проверки сообщения и обнаруживают плохо скроенный макет космической тарелки. Чрезмерная любезность и гостеприимство местных жителей заставляют их задуматься о том, что же случилось на самом деле. Уверенность приходит в тот момент, когда на спине одного из жителей городка они обнаруживают странного вида паразита явно неземного происхождения. Предотвратить беду не получится - число людей, заражённых пришельцами, увеличивается не по дням, а по часам.

Возраст: 16+ (зрителям, достигшим 16 лет)
Рейтинг MPAA: R (лицам до 17 лет обязательно присутствие взрослого)
Релиз от: KORSAR
Продолжительность: 01:48:55
Качество видео: BDRip
Перевод: Профессиональный многоголосый, профессиональный двухголосый, авторский
Субтитры: Русские, английские
Видео: AVC/H.264, 1280x544, ~4215 Kbps
Аудио 1: AC3, 2 ch, 192 Kbps - Русский (MVO, Первый канал)
Аудио 2: AC3, 2 ch, 448 Kbps - Русский (DVO, Видеосервис)
Аудио 3: AC3, 2 ch, 192 Kbps - Русский (DVO, НТВ+)
Аудио 4: AC3, 2 ch, 448 Kbps - Русский (AVO, Ю. Живов)
Аудио 5: AC3, 2 ch, 448 Kbps - Русский (AVO, С. Кузнецов)
Аудио 6: AC3, 2 ch, 192 Kbps - Русский (AVO, А. Кашкин)
Аудио 7: AC3, 2 ch, 192 Kbps - Русский (AVO, Л. Володарский)
Аудио 8: AC3, 2 ch, 192 Kbps - Русский (AVO, А. Алексеев)
Аудио 9: AC3, 2 ch, 448 Kbps - Английский (Оригинал)

MediaInfo:

x264 [info]: frame I:1077 Avg QP:15.59 size: 88415
x264 [info]: frame P:35925 Avg QP:17.06 size: 43814
x264 [info]: frame B:119686 Avg QP:19.42 size: 14824
=========================================================
General
Format : Matroska
Format version : Version 4 / Version 2
File size : 5.30 GiB
Duration : 1 h 48 min
Overall bit rate : 6 972 kb/s
Movie name : The Puppet Masters (1994)_rip_by_Cthulhu
Encoded date : UTC 2020-08-25 16:46:15
Writing application : mkvmerge v46.0.0 ('No Deeper Escape') 64-bit
Writing library : libebml v1.3.10 + libmatroska v1.5.2
Cover : Yes
Attachments : cover.png
Video
ID : 1
Format : AVC
Format/Info : Advanced Video Codec
Format profile : [email protected]
Format settings : CABAC / 12 Ref Frames
Format settings, CABAC : Yes
Format settings, ReFrames : 12 frames
Codec ID : V_MPEG4/ISO/AVC
Duration : 1 h 48 min
Bit rate : 4 215 kb/s
Width : 1 280 pixels
Height : 544 pixels
Display aspect ratio : 2.35:1
Frame rate mode : Constant
Frame rate : 23.976 (24000/1001) FPS
Color space : YUV
Chroma subsampling : 4:2:0
Bit depth : 8 bits
Scan type : Progressive
Bits/(Pixel*Frame) : 0.252
Stream size : 3.21 GiB (60%)
Writing library : x264 core 146 r2538 121396c
Encoding settings : cabac=1 / ref=12 / deblock=1:-3:-3 / analyse=0x3:0x133 / me=umh / subme=11 / psy=1 / psy_rd=1.04:0.10 / mixed_ref=1 / me_range=48 / chroma_me=1 / trellis=2 / 8x8dct=1 / cqm=0 / deadzone=21,11 / fast_pskip=0 / chroma_qp_offset=-3 / threads=24 / lookahead_threads=4 / sliced_threads=0 / nr=0 / decimate=1 / interlaced=0 / bluray_compat=0 / constrained_intra=0 / bframes=11 / b_pyramid=2 / b_adapt=2 / b_bias=0 / direct=3 / weightb=1 / open_gop=0 / weightp=2 / keyint=240 / keyint_min=23 / scenecut=40 / intra_refresh=0 / rc_lookahead=60 / rc=crf / mbtree=0 / crf=17.5 / qcomp=0.60 / qpmin=0 / qpmax=39 / qpstep=4 / vbv_maxrate=50000 / vbv_bufsize=62500 / crf_max=0.0 / nal_hrd=none / filler=0 / ip_ratio=1.40 / pb_ratio=1.30 / aq=2:1.00
Language : English
Default : Yes
Forced : No
Color range : Limited
Color primaries : BT.709
Transfer characteristics : BT.709
Matrix coefficients : BT.709
Audio #1
ID : 2
Format : AC-3
Format/Info : Audio Coding 3
Commercial name : Dolby Digital
Codec ID : A_AC3
Duration : 1 h 48 min
Bit rate mode : Constant
Bit rate : 192 kb/s
Channel(s) : 2 channels
Channel layout : L R
Sampling rate : 48.0 kHz
Frame rate : 31.250 FPS (1536 SPF)
Bit depth : 16 bits
Compression mode : Lossy
Stream size : 150 MiB (3%)
Title : MVO Первый канал
Language : Russian
Service kind : Complete Main
Default : Yes
Forced : No
Audio #2
ID : 3
Format : AC-3
Format/Info : Audio Coding 3
Commercial name : Dolby Digital
Codec ID : A_AC3
Duration : 1 h 48 min
Bit rate mode : Constant
Bit rate : 448 kb/s
Channel(s) : 2 channels
Channel layout : L R
Sampling rate : 48.0 kHz
Frame rate : 31.250 FPS (1536 SPF)
Bit depth : 16 bits
Compression mode : Lossy
Stream size : 349 MiB (6%)
Title : DVO Видеосервис
Language : Russian
Service kind : Complete Main
Default : No
Forced : No
Audio #3
ID : 4
Format : AC-3
Format/Info : Audio Coding 3
Commercial name : Dolby Digital
Codec ID : A_AC3
Duration : 1 h 48 min
Bit rate mode : Constant
Bit rate : 192 kb/s
Channel(s) : 2 channels
Channel layout : L R
Sampling rate : 48.0 kHz
Frame rate : 31.250 FPS (1536 SPF)
Bit depth : 16 bits
Compression mode : Lossy
Stream size : 150 MiB (3%)
Title : DVO НТВ+
Language : Russian
Service kind : Complete Main
Default : No
Forced : No
Audio #4
ID : 5
Format : AC-3
Format/Info : Audio Coding 3
Commercial name : Dolby Digital
Codec ID : A_AC3
Duration : 1 h 48 min
Bit rate mode : Constant
Bit rate : 448 kb/s
Channel(s) : 2 channels
Channel layout : L R
Sampling rate : 48.0 kHz
Frame rate : 31.250 FPS (1536 SPF)
Bit depth : 16 bits
Compression mode : Lossy
Stream size : 349 MiB (6%)
Title : AVO Живов
Language : Russian
Service kind : Complete Main
Default : No
Forced : No
Audio #5
ID : 6
Format : AC-3
Format/Info : Audio Coding 3
Commercial name : Dolby Digital
Codec ID : A_AC3
Duration : 1 h 48 min
Bit rate mode : Constant
Bit rate : 448 kb/s
Channel(s) : 2 channels
Channel layout : L R
Sampling rate : 48.0 kHz
Frame rate : 31.250 FPS (1536 SPF)
Bit depth : 16 bits
Compression mode : Lossy
Stream size : 349 MiB (6%)
Title : AVO Кузнецов
Language : Russian
Service kind : Complete Main
Default : No
Forced : No
Audio #6
ID : 7
Format : AC-3
Format/Info : Audio Coding 3
Commercial name : Dolby Digital
Codec ID : A_AC3
Duration : 1 h 48 min
Bit rate mode : Constant
Bit rate : 192 kb/s
Channel(s) : 2 channels
Channel layout : L R
Sampling rate : 48.0 kHz
Frame rate : 31.250 FPS (1536 SPF)
Bit depth : 16 bits
Compression mode : Lossy
Stream size : 150 MiB (3%)
Title : AVO Кашкин
Language : Russian
Service kind : Complete Main
Default : No
Forced : No
Audio #7
ID : 8
Format : AC-3
Format/Info : Audio Coding 3
Commercial name : Dolby Digital
Codec ID : A_AC3
Duration : 1 h 48 min
Bit rate mode : Constant
Bit rate : 192 kb/s
Channel(s) : 2 channels
Channel layout : L R
Sampling rate : 48.0 kHz
Frame rate : 31.250 FPS (1536 SPF)
Bit depth : 16 bits
Compression mode : Lossy
Stream size : 150 MiB (3%)
Title : AVO Володарский
Language : Russian
Service kind : Complete Main
Default : No
Forced : No
Audio #8
ID : 9
Format : AC-3
Format/Info : Audio Coding 3
Commercial name : Dolby Digital
Codec ID : A_AC3
Duration : 1 h 48 min
Bit rate mode : Constant
Bit rate : 192 kb/s
Channel(s) : 2 channels
Channel layout : L R
Sampling rate : 48.0 kHz
Frame rate : 31.250 FPS (1536 SPF)
Bit depth : 16 bits
Compression mode : Lossy
Stream size : 150 MiB (3%)
Title : AVO Алексеев
Language : Russian
Service kind : Complete Main
Default : No
Forced : No
Audio #9
ID : 10
Format : AC-3
Format/Info : Audio Coding 3
Commercial name : Dolby Digital
Codec ID : A_AC3
Duration : 1 h 48 min
Bit rate mode : Constant
Bit rate : 448 kb/s
Channel(s) : 2 channels
Channel layout : L R
Sampling rate : 48.0 kHz
Frame rate : 31.250 FPS (1536 SPF)
Bit depth : 16 bits
Compression mode : Lossy
Stream size : 349 MiB (6%)
Language : English
Service kind : Complete Main
Default : No
Forced : No
Text #1
ID : 11
Format : UTF-8
Codec ID : S_TEXT/UTF8
Codec ID/Info : UTF-8 Plain Text
Duration : 1 h 44 min
Bit rate : 83 b/s
Count of elements : 969
Stream size : 63.6 KiB (0%)
Language : Russian
Default : No
Forced : No
Text #2
ID : 12
Format : UTF-8
Codec ID : S_TEXT/UTF8
Codec ID/Info : UTF-8 Plain Text
Duration : 1 h 45 min
Bit rate : 44 b/s
Count of elements : 1195
Stream size : 34.7 KiB (0%)
Language : English
Default : No
Forced : No
Text #3
ID : 13
Format : UTF-8
Codec ID : S_TEXT/UTF8
Codec ID/Info : UTF-8 Plain Text
Duration : 1 h 45 min
Bit rate : 49 b/s
Count of elements : 1370
Stream size : 38.2 KiB (0%)
Title : SDH
Language : English
Default : No
Forced : No
Menu
00:00:00.000 : en:Opening Credits
00:04:04.285 : en:The Television Station
00:16:48.215 : en:Back at the Lab
00:30:27.534 : en:A Package From Iowa
00:40:07.405 : en:Communication
00:49:29.299 : en:Sending in the Troops
01:01:42.240 : en:Observation
01:09:53.147 : en:Sam's Place
01:16:33.213 : en:Going After the Hive
01:31:02.748 : en:The Cure
01:37:21.460 : en:The Unexpected
01:43:07.139 : en:Reconciliation
-Скриншоты:


Смотреть онлайн

[trackeroc.org].31772.torrent  Магнет ссылка
Torrent: Registered   [ 2020-09-08 11:08 ]

Скачать торрент

28 KB

Status: checked
Completed: 7 times
Size: 5.3 GB
 

trackeroc.org (08-сен-20)


_________________
[Profile] [PM]
Display posts from previous:    
Reply to topic

The time now is: Today 12:51

All times are GMT + 4 Hours



You cannot post new topics in this forum
You cannot reply to topics in this forum
You cannot edit your posts in this forum
You cannot delete your posts in this forum
You cannot vote in polls in this forum
You cannot attach files in this forum
You can download files in this forum