Лунтик и его друзья (2006-2020) (сезон 1-9, серии 1-518 из 539) скачать торрент

Reply to topic

DL-List and Torrent activity [Update пиров]
Size:  26.74 GB   |    Registered:  22 days   |    Completed:  0 times
Seeders:  37  [  6 MB/s  ]   Leechers:  61  [  74 MB/s  ]   Show peers in full details
 
 
 
 
Author Message

www.trackeroc.ru ®

Longevity: 6 years 10 months

Posts: 9994

Location: Скачать торрент


Post 03-May-2020 09:38

[Quote]

Лунтик и его друзья - Жанр: Детский, Компьютерная анимация
Производство: Россия / Анимационная Студия "Мельница"
Режиссер: Дарина Шмидт, Елена Галдобина, Екатерина Салабай
Актеры: Екатерина Гороховская, Елена Шульман, Юлия Рудина, Екатерина Гороховская, Светлана Письмиченко, Олег Куликович, Елена Шульман, Анатолий Петров
Персонажи: Лунтик, Кузя, Мила, Пчелёнок, Вупсень и Пупсень, Баба Капа, Корней Корнеевич, Генерал Шер, Паук Шнюк
Описание:
«Лунтик и его друзья» — добрый симпатичный мультфильм про необычное существо, родившееся на Луне и попавшее на Землю. Он встречает несколько лесных обитателей, которые становятся его лучшими друзьями. И теперь дети вместе с Лунтиком вот уже десять лет растут, учатся дружить и быть добрыми, помогать друг другу и постоянно открывают для себя что-то новое.

Возраст: 0+ (для любой зрительской аудитории)
Рейтинг MPAA: G (нет возрастных ограничений)
Релиз от: Natasha77 (NNM-Club)
Продолжительность: серия по ~00:05:00
Качество видео: WEB-DLRip
Перевод: Не требуется (Русский)
Субтитры: Отсутствуют
Видео: AVC/H.264, 1280x720, ~1500 kbps
Аудио: AAC, 2 ch, 192 Kbps | Русский

MediaInfo

Код:
General
Complete name               : C:\444. Очки для деда Шера.mp4
Format                      : MPEG-4
Format profile              : Base Media / Version 2
Codec ID                    : mp42 (isom/mp42)
File size                   : 37.3 MiB
Duration                    : 4 min 38 s
Overall bit rate mode       : Variable
Overall bit rate            : 1 125 kb/s
Encoded date                : UTC 2016-08-11 19:31:41
Tagged date                 : UTC 2016-08-11 19:31:41
gsst                        : 0
gstd                        : 278430
Video
ID                          : 1
Format                      : AVC
Format/Info                 : Advanced Video Codec
Format profile              : [email protected]
Format settings, CABAC      : Yes
Format settings, ReFrames   : 3 frames
Codec ID                    : avc1
Codec ID/Info               : Advanced Video Coding
Duration                    : 4 min 38 s
Bit rate                    : 995 kb/s
Width                       : 1 280 pixels
Height                      : 720 pixels
Display aspect ratio        : 16:9
Frame rate mode             : Constant
Frame rate                  : 25.000 FPS
Color space                 : YUV
Chroma subsampling          : 4:2:0
Bit depth                   : 8 bits
Scan type                   : Progressive
Bits/(Pixel*Frame)          : 0.043
Stream size                 : 33.0 MiB (89%)
Title                       : ISO Media file produced by Google Inc.
Encoded date                : UTC 2016-08-11 19:31:41
Tagged date                 : UTC 2016-08-11 19:31:41
Audio
ID                          : 2
Format                      : AAC
Format/Info                 : Advanced Audio Codec
Format profile              : LC
Codec ID                    : 40
Duration                    : 4 min 38 s
Bit rate mode               : Variable
Bit rate                    : 126 kb/s
Channel(s)                  : 2 channels
Channel positions           : Front: L R
Sampling rate               : 44.1 kHz
Frame rate                  : 43.066 FPS (1024 spf)
Compression mode            : Lossy
Stream size                 : 4.17 MiB (11%)
Title                       : ISO Media file produced by Google Inc.
Encoded date                : UTC 2016-08-11 19:31:41
Tagged date                 : UTC 2016-08-11 19:31:41

Интересные факты:

Опросы среди одиннадцати столичных торговых сетей поставили Лунтика на первое место среди анимационных брендов.
Мультсериал в 2015 году был награжден премией «ТЭФИ» в номинации «Лучшая программа для детей и юношества».
Количество просмотров канала «Лунтика» на Youtube составило более 3 миллиардов (по данным на октябрь 2016 года).
Мультсериал находится на 72 месте в топ-100 самых просматриваемых каналов на сервисе Youtube (по данным на октябрь 2016 года).
Более 50 серий мультфильма были дублированы на английском языке под названием Moonzy.
По мотивам мультсериала выпущено несколько игр и интерактивных приложений для мобильных и планшетов.
На сегодняшний день снято уже 488 серий, что делает его безусловным лидером среди российских мультсериалов.
Отличить Вупсеня от Пупсеня можно по переднику — у Вупсеня на нем изображена слива, а у Пупсеня — две вишни. Кроме того, Вупсень носит на голове красную повязку, а Пупсень — кепку.
-Скриншоты:


Смотреть онлайн

[trackeroc.org].30477.torrent  Магнет ссылка
Torrent: Registered   [ 2021-02-05 13:52 ]

Скачать торрент

165 KB

Status: * not checked
Completed: 708 times
Size: 26.74 GB
 

Moder (03-май-20), trackeroc.org (08-янв-21)

Similar torrent
Forum Topic Author Size
Сборники игр, Антологии Серия обучающих игр Лунтик (1-15) [3+ лет] (P) (2006-2011) Moder 12 GB
[Profile] [PM]
Display posts from previous:    
Reply to topic

The time now is: Today 11:23

All times are GMT + 4 Hours



You cannot post new topics in this forum
You cannot reply to topics in this forum
You cannot edit your posts in this forum
You cannot delete your posts in this forum
You cannot vote in polls in this forum
You cannot attach files in this forum
You can download files in this forum