Нерегулярные части / The Irregulars (2021) WEB-DL [H.264/1080p-LQ] (сезон 1, серии 1-8 из 8) SDI Media скачать торрент

Reply to topic


DL-List and Torrent activity [Update пиров]
Size:  14.61 GB   |    Registered:  21 day   |    Completed:  0 times
Seeders:  34  [  5 MB/s  ]   Leechers:  12  [  38 MB/s  ]   Show peers in full details
 
 
 
 
Author Message

www.trackeroc.ru ®

Longevity: 6 years 11 months

Posts: 10201

Location: Скачать торрент


Post 26-Mar-2021 13:17

[Quote]

Нерегулярные части / The Irregulars - Производство: Великобритания / Drama Republic, Nvizage
Жанр: фэнтези, драма, криминал, детектив
Режиссер: Джосс Эгнью, Johnny Allan, Weronika Tofilska
Актеры: МакКелл Дэвид, Таддеа Грэм, Джоджо Макари, Дарси Шоу, Шила Атим, Марк Хью-Уильямс, Харрисон Остерфилд, Кларк Питерс, Ройс Пирресон, Грант Крукс
Описание:
Добро пожаловать в Лондон 19-го века, где компания уличных ребятишек с шутливым названием «Нерегулярные части» выполняет поручения доктора Ватсона и его неуловимого партнёра Шерлока Холмса, помогая им раскрывать преступления, в которых замешаны потусторонние силы.

Дата мировой премьеры: 26 марта 2021
Продолжительность: ~01:00:00 серия
Качество видео: WEB-DL
Перевод: Дублированный (SDI Media)
Язык озвучки: Русский, английский
Субтитры: Русские (Forced, Full), английские (SDH), немецкие, испанские, французкие, итальянские, португальские
Видео: AVC/H.264, 1920x1080 (16:9), ~3797 kbps
Аудио 1: E-AC3, 6 ch, 640 kbps - русский
Аудио 2: E-AC3 JOC, 6 ch, 640 kbps - английский

Список серий:

01. Недоброжелательность в Лондоне — An Unkindness in London
02. Призраки из 221-б — The Ghosts of 221B
03. Ипсиссимус — Ipsissimus
04. И игла, и нож — Both the Needle and the Knife
05. Изучающие грешные искусства — Students of the Unhallowed Arts
06. Ястребинка сноудонская — Hieracium Snowdoniense
07. Экстаз смерти — The Ecstasy of Death
08. Экстаз жизни — The Ecstasy of Life

MediaInfo:

General
Complete name : The.Irregulars.S01E01.1080p.NF.WEB-DL.DDP5.1.x264-EniaHD.mkv
Format : Matroska
Format version : Version 4
File size : 2.12 GiB
Duration : 58 min 18 s
Overall bit rate mode : Variable
Overall bit rate : 5 206 kb/s
Movie name : The Irregulars S01E01 - EniaHD
Encoded date : UTC 2021-03-26 07:08:14
Writing application : mkvmerge v55.0.0 ('Waiting For Space') 64-bit
Writing library : libebml v1.4.2 + libmatroska v1.6.4
Video
ID : 1
Format : AVC
Format/Info : Advanced Video Codec
Format profile : [email protected]
Format settings : CABAC / 4 Ref Frames
Format settings, CABAC : Yes
Format settings, Reference fra : 4 frames
Codec ID : V_MPEG4/ISO/AVC
Duration : 58 min 17 s
Bit rate mode : Variable
Bit rate : 3 797 kb/s
Maximum bit rate : 20.0 Mb/s
Width : 1 920 pixels
Height : 1 080 pixels
Display aspect ratio : 16:9
Frame rate mode : Constant
Frame rate : 25.000 FPS
Color space : YUV
Chroma subsampling : 4:2:0
Bit depth : 8 bits
Scan type : Progressive
Bits/(Pixel*Frame) : 0.073
Stream size : 1.55 GiB (73%)
Writing library : x264 core 148 r2722 1b0121b
Encoding settings : cabac=1 / ref=4 / deblock=1:0:0 / analyse=0x3:0x111 / me=umh / subme=10 / psy=1 / psy_rd=1.00:0.00 / mixed_ref=1 / me_range=120 / chroma_me=1 / trellis=2 / 8x8dct=1 / cqm=0 / deadzone=21,11 / fast_pskip=1 / chroma_qp_offset=-2 / threads=6 / lookahead_threads=1 / sliced_threads=0 / nr=0 / decimate=1 / interlaced=0 / bluray_compat=0 / stitchable=1 / constrained_intra=0 / bframes=16 / b_pyramid=2 / b_adapt=2 / b_bias=0 / direct=3 / weightb=1 / open_gop=0 / weightp=2 / keyint=250 / keyint_min=126 / scenecut=0 / intra_refresh=0 / rc_lookahead=250 / rc=crf / mbtree=1 / crf=16.0 / qcomp=0.50 / qpmin=6 / qpmax=51 / qpstep=4 / vbv_maxrate=20000 / vbv_bufsize=25000 / crf_max=0.0 / nal_hrd=vbr / filler=0 / ip_ratio=1.40 / aq=1:0.80
Default : Yes
Forced : No
Audio #1
ID : 2
Format : E-AC-3
Format/Info : Enhanced AC-3
Commercial name : Dolby Digital Plus
Codec ID : A_EAC3
Duration : 58 min 18 s
Bit rate mode : Constant
Bit rate : 640 kb/s
Channel(s) : 6 channels
Channel layout : L R C LFE Ls Rs
Sampling rate : 48.0 kHz
Frame rate : 31.250 FPS (1536 SPF)
Compression mode : Lossy
Stream size : 267 MiB (12%)
Language : Russian
Service kind : Complete Main
Default : Yes
Forced : No
Audio #2
ID : 3
Format : E-AC-3 JOC
Format/Info : Enhanced AC-3 with Joint Object Coding
Commercial name : Dolby Digital Plus with Dolby Atmos
Codec ID : A_EAC3
Duration : 58 min 18 s
Bit rate mode : Constant
Bit rate : 768 kb/s
Channel(s) : 6 channels
Channel layout : L R C LFE Ls Rs
Sampling rate : 48.0 kHz
Frame rate : 31.250 FPS (1536 SPF)
Compression mode : Lossy
Stream size : 320 MiB (15%)
Language : English
Service kind : Complete Main
Default : No
Forced : No
Complexity index : 16
Number of dynamic objects : 15
Bed channel count : 1 channel
Bed channel configuration : LFE
Text #1
ID : 4
Format : UTF-8
Codec ID : S_TEXT/UTF8
Codec ID/Info : UTF-8 Plain Text
Duration : 56 min 45 s
Bit rate : 0 b/s
Count of elements : 6
Stream size : 324 Bytes (0%)
Title : Forced
Language : Russian
Default : Yes
Forced : No
Text #2
ID : 5
Format : UTF-8
Codec ID : S_TEXT/UTF8
Codec ID/Info : UTF-8 Plain Text
Duration : 56 min 45 s
Bit rate : 72 b/s
Count of elements : 651
Stream size : 30.1 KiB (0%)
Language : Russian
Default : No
Forced : No
Text #3
ID : 6
Format : UTF-8
Codec ID : S_TEXT/UTF8
Codec ID/Info : UTF-8 Plain Text
Duration : 55 min 21 s
Bit rate : 59 b/s
Count of elements : 774
Stream size : 24.3 KiB (0%)
Title : SDH
Language : English
Default : No
Forced : No
Text #4
ID : 7
Format : UTF-8
Codec ID : S_TEXT/UTF8
Codec ID/Info : UTF-8 Plain Text
Duration : 56 min 45 s
Bit rate : 44 b/s
Count of elements : 650
Stream size : 18.7 KiB (0%)
Language : German
Default : No
Forced : No
Text #5
ID : 8
Format : UTF-8
Codec ID : S_TEXT/UTF8
Codec ID/Info : UTF-8 Plain Text
Duration : 56 min 45 s
Bit rate : 45 b/s
Count of elements : 650
Stream size : 19.0 KiB (0%)
Language : Spanish
Default : No
Forced : No
Text #6
ID : 9
Format : UTF-8
Codec ID : S_TEXT/UTF8
Codec ID/Info : UTF-8 Plain Text
Duration : 56 min 45 s
Bit rate : 43 b/s
Count of elements : 649
Stream size : 18.1 KiB (0%)
Language : French
Default : No
Forced : No
Text #7
ID : 10
Format : UTF-8
Codec ID : S_TEXT/UTF8
Codec ID/Info : UTF-8 Plain Text
Duration : 56 min 45 s
Bit rate : 42 b/s
Count of elements : 650
Stream size : 17.8 KiB (0%)
Language : Italian
Default : No
Forced : No
Text #8
ID : 11
Format : UTF-8
Codec ID : S_TEXT/UTF8
Codec ID/Info : UTF-8 Plain Text
Duration : 56 min 45 s
Bit rate : 45 b/s
Count of elements : 650
Stream size : 19.1 KiB (0%)
Title : Brazilian
Language : Portuguese
Default : No
Forced : No
-Скриншоты:


Смотреть онлайн

[trackeroc.org].32747.torrent  Магнет ссылка
Torrent: Registered   [ 2021-03-26 18:02 ]

Скачать торрент

148 KB

Status: checked
Completed: 172 times
Size: 14.61 GB
 

Pro100Moder (26-мар-21)

Similar torrent
Forum Topic Author Size
Сборники игр, Антологии The Treasures of Montezuma 1-5 / Сокровища Монтесумы 1-5 части (2006-2013) (RUS) www.trackeroc.ru 707 MB
[Profile] [PM]
Display posts from previous:    
Reply to topic

The time now is: Today 20:44

All times are GMT + 4 Hours



You cannot post new topics in this forum
You cannot reply to topics in this forum
You cannot edit your posts in this forum
You cannot delete your posts in this forum
You cannot vote in polls in this forum
You cannot attach files in this forum
You can download files in this forum