Новая жизнь / Yeni Hayat (2020) HDTVRip [H.264/720p-LQ] (сезон 1, серии 1 из ??) SesDizi (обновляемая) [PR] скачать торрент

Reply to topic

DL-List and Torrent activity [Update пиров]
Size:  1.9 GB   |    Registered:  15 days   |    Completed:  0 times

Seeder not seen: Never

 
 
 
 
 
Author Message

Captain ®

Longevity: 6 years 5 months

Posts: 2553

Location: Earth


Post 09-Sep-2020 05:05

[Quote]

Новая жизнь / Yeni Hayat - Производство: Турция / Ojo Pictures
Жанр: драма
Режиссер: Басак Сойсал, Чем Озюдуру
Актеры: Серкан Чайоглу, Мелиса Аслы Памук, Ниса Софья Аксонгур, Таянч Аяйдын, Нилпери Шахинкая, Ипек Филиз Язиджи, Деврим Нэс, Азиз Джанер Инан, Небил Сайин, Айсе Тунабойлу и др.
Описание:
Всё начинается с работы, с которой сталкивается капитан Адем, покинувший спецназ. Двери новой жизни были открыты для маленькой семьи, которую Адем создал вместе со своей женой Невин и их маленькой дочерью Эдже. Все, что нужно сделать Адаму, - это охранять Ясемин, молодую жену Тимура, богатого и влиятельного бизнесмена.

Продолжительность: ~02:00:00 серия
Качество видео: HDTVRip
Перевод: Двуголосый любительский (SesDizi)
Видео: AVC/H.264, 1280x720 (16:9), ~2095 kbps
Аудио: AAC, 2 ch, 128 kbps

MediaInfo:

General
Format : Matroska
Format version : Version 4
File size : 1.90 GiB
Duration : 2 h 2 min
Overall bit rate : 2 227 kb/s
Encoded date : UTC 2020-09-04 09:09:57
Writing application : mkvmerge v47.0.0 ('Black Flag') 64-bit
Writing library : libebml v1.3.10 + libmatroska v1.5.2
Video
ID : 2
Format : AVC
Format/Info : Advanced Video Codec
Format profile : [email protected]
Format settings : CABAC / 2 Ref Frames
Format settings, CABAC : Yes
Format settings, Reference fra : 2 frames
Format settings, GOP : M=1, N=12
Codec ID : V_MPEG4/ISO/AVC
Duration : 2 h 2 min
Bit rate : 2 096 kb/s
Width : 1 280 pixels
Height : 720 pixels
Display aspect ratio : 16:9
Frame rate mode : Constant
Frame rate : 25.000 FPS
Color space : YUV
Chroma subsampling : 4:2:0
Bit depth : 8 bits
Scan type : Progressive
Bits/(Pixel*Frame) : 0.091
Stream size : 1.79 GiB (94%)
Default : Yes
Forced : No
Audio
ID : 1
Format : AAC LC
Format/Info : Advanced Audio Codec Low Complexity
Codec ID : A_AAC-2
Duration : 2 h 2 min
Bit rate : 128 kb/s
Channel(s) : 2 channels
Channel layout : L R
Sampling rate : 44.1 kHz
Frame rate : 43.066 FPS (1024 SPF)
Compression mode : Lossy
Stream size : 112 MiB (6%)
Default : Yes
Forced : No
-Скриншоты:


Смотреть онлайн

[trackeroc.org].31779.torrent  Магнет ссылка
Torrent: Registered   [ 2020-09-09 05:05 ]

Скачать торрент

20 KB

Status: T temporary
Completed: 5 times
Size: 1.9 GB
 

trackeroc.org (09-сен-20)

Similar torrent
Forum Topic Author Size
Playstation 4 (PS4) - Игры Days Gone / Жизнь после (2019) [PS4] [EUR] 5.05 [HEN] [License / 1.51 / DLC] [Ru/En] Captain 53.49 GB
Зарубежные Мультсериалы Рапунцель: Новая история / Tangled: The Series (2017-2020) WEBRip (Сезоны 1-3, серии: 60 из 60) Captain 12.24 GB
Visual Novel, Визуальные новеллы Жизнь с рабыней: Познание чувств / Life With a Slave: Teaching Feelings v2.5.2 (2018) (ENG/RUS) Admin 1.28 GB
Зарубежные Тайная жизнь пингвинов / Пингвинье шоссе / Penguin Highway (2018) WEBRip [H.264/1080p-LQ] Captain 1.58 GB

_________________
[Profile] [PM]
Display posts from previous:    
Reply to topic

The time now is: Today 00:35

All times are GMT + 4 Hours



You cannot post new topics in this forum
You cannot reply to topics in this forum
You cannot edit your posts in this forum
You cannot delete your posts in this forum
You cannot vote in polls in this forum
You cannot attach files in this forum
You can download files in this forum