Обыкновенный фашизм (1965) WEBRip [H.264/1080p-LQ] скачать торрент

Reply to topic


DL-List and Torrent activity [Update пиров]
Size:  2.8 GB   |    Registered:  19 days   |    Completed:  0 times
Seeders:  8  [  170 KB/s  ]   Show peers in full details
 
 
 
 
Author Message

Pro100Moder ®

Longevity: 6 years 11 months

Posts: 2542

Location: Earth


Post 28-Mar-2021 09:46

[Quote]

Обыкновенный фашизм - Производство: СССР / Мосфильм, Третье творческое объединение
Жанр: Документальный, военный, история
Режиссер: Михаил Ромм
Описание:
«Показывая вам нашу картину, мы, разумеется, не рассчитывали осветить все формы такого явления как фашизм. Это невозможно в пределах одной картины. Да это невозможно хотя бы потому, что многое, очень важное, не оставило никаких следов на пленке. Не было снято. Из огромного количества материала мы отобрали то, что показалось нам самым поразительным, что дает нам возможность вместе с вами поразмышлять...»

Продолжительность: 02:10:14
Качество видео: WEBRip
Субтитры: Отсутствуют
Видео: AVC/H.264, 1488x1080, ~2890 Kbps
Аудио: AC3, 2 ch, 192 Kbps - русский

MediaInfo:

Общее
Уникальный идентификатор : 17226984498637496081731934424898403168 (0xCF5CBE95F8879F28E5AA5C17C96FB60)
Полное имя : G:\Обыкновенный фашизм (1965).by.Alexandr.mkv
Формат : Matroska
Версия формата : Version 4
Размер файла : 2,80 Гбайт
Продолжительность : 2 ч. 10 м.
Общий поток : 3 082 Кбит/сек
Название фильма : Обыкновенный фашизм.1965.by.Alexandr
Дата кодирования : UTC 2021-03-27 06:12:17
Программа кодирования : mkvmerge v26.0.0 ('In The Game') 32-bit
Библиотека кодирования : libebml v1.3.6 + libmatroska v1.4.9 / Lavf58.29.100
Видео
Идентификатор : 1
Формат : AVC
Формат/Информация : Advanced Video Codec
Профиль формата : [email protected]
Настройки формата : CABAC / 3 Ref Frames
Параметр CABAC формата : Да
Параметр RefFrames формата : 3 кадра
Идентификатор кодека : V_MPEG4/ISO/AVC
Продолжительность : 2 ч. 10 м.
Битрейт : 2 888 Кбит/сек
Ширина : 1 488 пикселей
Высота : 1 080 пикселей
Соотношение сторон : 1,378
Режим частоты кадров : Постоянный
Частота кадров : 25,000 кадров/сек
Цветовое пространство : YUV
Субдискретизация насыщенности : 4:2:0
Битовая глубина : 8 бит
Тип развёртки : Прогрессивная
Бит/(Пиксели*Кадры) : 0.072
Размер потока : 2,63 Гбайт (94%)
Библиотека кодирования : x264 core 155 r2901 7d0ff22
Default : Да
Forced : Нет
Цветовой диапазон : Limited
Основные цвета : BT.709
Характеристики трансфера : BT.709
Коэффициенты матрицы : BT.709
Аудио
Идентификатор : 2
Формат : AC-3
Формат/Информация : Audio Coding 3
Коммерческое название : Dolby Digital
Идентификатор кодека : A_AC3
Продолжительность : 2 ч. 10 м.
Вид битрейта : Постоянный
Битрейт : 192 Кбит/сек
Каналы : 2 канала
Channel layout : L R
Частота : 48,0 КГц
Частота кадров : 31,250 кадров/сек (1536 SPF)
Метод сжатия : С потерями
Задержка видео : -40 мс.
Размер потока : 179 Мбайт (6%)
Service kind : Complete Main
Default : Да
Forced : Нет
-Скриншоты:


Смотреть онлайн

[trackeroc.org].32763.torrent  Магнет ссылка
Torrent: Registered   [ 2021-03-28 09:46 ]

Скачать торрент

15 KB

Status: checked
Completed: 77 times
Size: 2.8 GB
 

www.trackeroc.ru (28-мар-21)


_________________
[Profile] [PM]
Display posts from previous:    
Reply to topic

The time now is: Today 21:39

All times are GMT + 4 Hours



You cannot post new topics in this forum
You cannot reply to topics in this forum
You cannot edit your posts in this forum
You cannot delete your posts in this forum
You cannot vote in polls in this forum
You cannot attach files in this forum
You can download files in this forum