Пересечение / Intersect (2020) WEB-DLRip [MVO] скачать торрент

Reply to topic

DL-List and Torrent activity [Update пиров]
Size:  1.46 GB   |    Registered:  2 months 1 day   |    Completed:  0 times
Seeders:  14  [  655 KB/s  ]   Leechers:  5  [  7 MB/s  ]   Show peers in full details
 
 
 
 
Author Message

Moder ®

Longevity: 6 years 7 months

Posts: 2540

Location: Earth


Post 27-Sep-2020 09:21

[Quote]

Пересечение / Intersect- Производство: США / Black Chalk, Shirley Films
Жанр: Фантастика, триллер, ужасы
Режиссер: Гас Холверда
Актеры: Джеймс Моррисон, Ричард Докинз, Джейсон Спайсэк, Абе Рутлесс, ЛиЭнн Диаринг, Хосе Росете, Дартанян Дрисколл, Kelcey Bligh, Райан Эделсон, Jacob Lacy
Описание:
Группа молодых учёных из Мискатоникского университета совершают научный прорыв и изобретают машину времени. Но оказывается, что всё это время ими манипулировали невидимые силы из другого измерения.

Дата мировой премьеры: 12 февраля 2020
Релиз от: MediaBit
Продолжительность: 01:58:49
Качество видео: WEB-DLRip
Перевод: Многоголосый закадровый, любительский (MUZOBOZ)
Субтитры: Отсутствуют
Видео: XviD, 720x360, ~1556 Kbps
Аудио: AC-3, 2 ch, 192 Kbps

MediaInfo:

Общее
Полное имя : Intersect.2020.WEB-DLRip.avi
Формат : AVI
Формат/Информация : Audio Video Interleave
Профиль формата : OpenDML
Размер файла : 1,46 Гбайт
Продолжительность : 1 ч. 58 м.
Общий поток : 1760 Кбит/сек
Программа кодирования : Lavf58.20.100
Видео
Идентификатор : 0
Формат : MPEG-4 Visual
Профиль формата : Advanced [email protected]L5
Настройки формата : BVOP1 / Custom Matrix
Параметр BVOP формата : 1
Параметр QPel формата : Нет
Параметр GMC формата : Без точки перехода
Параметр матрицы формата : Выборочная
Идентификатор кодека : XVID
Идентификатор кодека/Подсказка : XviD
Продолжительность : 1 ч. 58 м.
Битрейт : 1556 Кбит/сек
Ширина : 720 пикселей
Высота : 360 пикселей
Соотношение сторон : 2,000
Частота кадров : 23,976 (24000/1001) кадра/сек
Цветовое пространство : YUV
Субдискретизация насыщенности : 4:2:0
Битовая глубина : 8 бит
Тип развёртки : Прогрессивная
Метод сжатия : С потерями
Бит/(Пиксели*Кадры) : 0.250
Размер потока : 1,29 Гбайт (88%)
Заголовок : MediaBit
Библиотека кодирования : XviD 67
Аудио
Идентификатор : 1
Формат : AC-3
Формат/Информация : Audio Coding 3
Коммерческое название : Dolby Digital
Идентификатор кодека : 2000
Продолжительность : 1 ч. 58 м.
Вид битрейта : Постоянный
Битрейт : 192 Кбит/сек
Каналы : 2 канала
ChannelLayout : L R
Частота : 48,0 КГц
Частота кадров : 31,250 кадров/сек (1536 SPF)
Битовая глубина : 16 бит
Метод сжатия : С потерями
Размер потока : 163 Мбайт (11%)
Выравнивание : Соединение по промежуткам
Продолжительность промежутка : 32 мс. (0,77 видеокадр)
Заголовок : MVO [@[email protected]] MediaBit
ServiceKind/String : Complete Main
-Скриншоты:


Смотреть онлайн

[trackeroc.org].31929.torrent  Магнет ссылка
Torrent: Registered   [ 2020-09-27 09:21 ]

Скачать торрент

15 KB

Status: checked
Completed: 119 times
Size: 1.46 GB
 

trackeroc.org (27-сен-20)

Similar torrent
Forum Topic Author Size
Квесты, я ищу, Поиск предметов, Hidden Object Parallels Cross / Пересечение судеб [P] [RUS / ENG] (2016) HOPE 377 MB

_________________
[Profile] [PM]
Display posts from previous:    
Reply to topic

The time now is: Today 13:59

All times are GMT + 4 Hours



You cannot post new topics in this forum
You cannot reply to topics in this forum
You cannot edit your posts in this forum
You cannot delete your posts in this forum
You cannot vote in polls in this forum
You cannot attach files in this forum
You can download files in this forum