Проклятый лес / Ведьмы в лесу / Witches in the Woods (2019) WEB-DLRip [H.265] [10-bit] скачать торрент

Reply to topic

DL-List and Torrent activity [Update пиров]
Size:  1.51 GB   |    Registered:  7 months 12 days   |    Completed:  1 time
Seeders:  2  [  45 KB/s  ]   Show peers in full details
 
 
 
 
Author Message

Captain ®

Longevity: 6 years 5 months

Posts: 2553

Location: Earth


Post 12-Feb-2020 04:19

[Quote]

Проклятый лес / Ведьмы в лесу / Witches in the Woods - Производство: Канада / Gearshift Films
Жанр: Ужасы, триллер
Режиссер: Джордан Баркер
Актеры: Ханна Касулка, Александр Де Джорди, Крэйг Арнольд, Корбин Блю, Саша Клементс, Джеймс Гилберт, Хамберли Гонсалес, Дэвид Лафонтен, Кайл Мак, Йен Мэтьюз
Описание:Семеро друзей отправляются на машине на базу отдыха. По пути выясняется, что часть дороги закрыта, поэтому приходится сделать немаленький крюк, в результате ребята сбиваются с пути. Вскоре им начинает казаться, что они ездят кругами, а когда машина попадает в небольшую аварию, одна из девушек заявляет, что они никогда отсюда не выберутся.
Дата мировой премьеры: 25 августа 2019
Продолжительность: 01:30:08
Качество видео: WEB-DLRip
Перевод: Профессиональный многоголосый (iTunes)
Субтитры: Отсутствуют
Видео: HEVC/H.265, 1024x424, 1961 Kbps
Аудио: AC3, 6 ch, 384 Kbps | Русский

MediaInfo:

Общее
Уникальный идентификатор : 182727802192547492758370816440866587359 (0x897818372583E892228A5BDF9B5242DF)
Полное имя : Witches in the Woods (2019) WEB-DLRip (1024x424) HEVC.mkv
Формат : Matroska
Версия формата : Version 4 / Version 2
Размер файла : 1,51 Гбайт
Продолжительность : 1 ч. 30 м.
Общий поток : 2393 Кбит/сек
Название фильма : WITCHES_ITW_2019_WEB-DL_1080p-BLUEBIRD
Программа кодирования : XviD4PSP 8.0.91
Библиотека кодирования : Lavf58.20.100
Обложка : Yes
ErrorDetectionType : Per level 1
Attachments : cover1
ENCODING_INFO : PNG > COPY Быстрое
Язык : und
Видео
Идентификатор : 1
Формат : HEVC
Формат/Информация : High Efficiency Video Coding
Профиль формата : Main [email protected]@High
Идентификатор кодека : V_MPEGH/ISO/HEVC
Продолжительность : 1 ч. 30 м.
Битрейт : 1961 Кбит/сек
Ширина : 1024 пикселя
Высота : 424 пикселя
Соотношение сторон : 2,40:1
Режим частоты кадров : Постоянный
Частота кадров : 23,976 (24000/1001) кадра/сек
Цветовое пространство : YUV
Субдискретизация насыщенности : 4:2:0
Битовая глубина : 10 бит
Бит/(Пиксели*Кадры) : 0.188
Размер потока : 1,24 Гбайт (82%)
Заголовок : WITCHES_ITW_2019_WEB-DL_1080p-BLUEBIRD
Язык : English
Default : Да
Forced : Нет
Цветовой диапазон : Limited
Основные цвета : BT.709
Характеристики трансфера : BT.709
Коэффициенты матрицы : BT.709
ENCODING_INFO : H264 > HEVC NVENC VBR 2000kbps HQ
Аудио
Идентификатор : 2
Формат : AC-3
Формат/Информация : Audio Coding 3
Параметр Endianness формата : Big
Идентификатор кодека : A_AC3
Продолжительность : 1 ч. 30 м.
Вид битрейта : Постоянный
Битрейт : 384 Кбит/сек
Каналы : 6 каналов
Расположение каналов : Front: L C R, Side: L R, LFE
Частота : 48,0 КГц
Частота кадров : 31,250 кадров/сек (1536 SPF)
Битовая глубина : 16 бит
Метод сжатия : С потерями
Размер потока : 249 Мбайт (16%)
Заголовок : [MVO] DD 5.1 @ 384 kbps (iTunes)
Язык : Russian
ServiceKind/String : Complete Main
Default : Да
Forced : Нет
ENCODING_INFO : AC3 > COPY Безопасное
Меню
00:00:00.000 : :1
00:03:06.000 : :2
00:14:51.000 : :3
00:26:46.000 : :4
00:36:51.000 : :5
00:43:34.000 : :6
00:54:41.000 : :7
01:05:39.000 : :8
01:15:28.000 : :9
01:26:24.000 : :10
-Скриншоты:


Смотреть онлайн

[trackeroc.org].29932.torrent  Магнет ссылка
Torrent: Registered   [ 2020-02-12 04:19 ]

Скачать торрент

16 KB

Status: checked
Completed: 35 times
Size: 1.51 GB
 

Admin (12-фев-20)

Similar torrent
Forum Topic Author Size
Квесты, я ищу, Поиск предметов, Hidden Object Haunted Hotel 19: Lost Time / Проклятый отель 19: Потерянное время [RUS / ENG] (2020) Admin 913 MB
Квесты, я ищу, Поиск предметов, Hidden Object Haunted Hotel 16: Lost Dreams / Проклятый отель 16: Несбывшиеся мечты (2018) [Ru] Admin 874 MB
Квесты, я ищу, Поиск предметов, Hidden Object Haunted Hotel 18: Room 18 / Проклятый отель 18: Комната 18 КИ [RUS / ENG] (2019) Admin 967 MB
Квесты, я ищу, Поиск предметов, Hidden Object Fatal Evidence: Cursed Island / Роковое доказательство. Проклятый остров [RUS / ENG] (2019) Admin 1.05 GB

_________________
[Profile] [PM]
Display posts from previous:    
Reply to topic

The time now is: Today 22:50

All times are GMT + 4 Hours



You cannot post new topics in this forum
You cannot reply to topics in this forum
You cannot edit your posts in this forum
You cannot delete your posts in this forum
You cannot vote in polls in this forum
You cannot attach files in this forum
You can download files in this forum