Шкатулка дьявола / Джек из коробки / The Jack in the Box (2019) WEB-DLRip [MVO] скачать торрент

Reply to topic

DL-List and Torrent activity [Update пиров]
Size:  1.25 GB   |    Registered:  27 days   |    Completed:  0 times

Seeder not seen: Never

 
 
 
 
 
Author Message

Captain ®

Longevity: 6 years 6 months

Posts: 2564

Location: Earth


Post 28-Sep-2020 21:22

[Quote]

Шкатулка дьявола / Джек из коробки / The Jack in the Box «Что бы ни случилось, не открывай её»- Производство: Великобритания / Fowler Media, Up A Notch Productions
Жанр: Ужасы
Режиссер: Лоуренс Фаулер
Актеры: Итан Тейлор, Роберт Нэйрн, Люси-Джейн Куинлэн, Филип Риду, Дэрри Гарднер, Кэтлин Рэй, Пенелопа Вилдгус, Том Картер, Винни Кларк, Стэйси Линн Кроу
Описание:
Молодой американский историк приезжает в британскую глубинку, чтобы поработать куратором музея, где случайно находит и открывает старинную игрушку "Джек-в-коробке". Вскоре после этого в городке начинают пропадать люди, и он понимает, что безобидная с виду игрушка хранит в себе тёмную тайну.

Возраст: 18+ (зрителям, достигшим 18 лет. запрещено для детей)
Дата мировой премьеры: 9 ноября 2019
Дата премьеры в России: 22 октября 2020

Продолжительность: 01:27:34
Качество видео: WEB-DLRip
Перевод: Многоголосый закадровый, профессиональный (Синема УС)
Субтитры: Русские (Full), английские (Full)
Видео: XviD, 720x304, ~1831 Kbps
Аудио: AC-3, 2 ch, 192 Kbps

MediaInfo:

Общее
Полное имя : The.Jack.In.The.Box.2020.WEB-DLRip.avi
Формат : AVI
Формат/Информация : Audio Video Interleave
Профиль формата : OpenDML
Размер файла : 1,25 Гбайт
Продолжительность : 1 ч. 27 м.
Общий поток : 2036 Кбит/сек
Название фильма : The Jack in the Box (2020 )
Программа кодирования : Lavf58.20.100
Видео
Идентификатор : 0
Формат : MPEG-4 Visual
Профиль формата : Advanced [email protected]
Настройки формата : BVOP1 / Custom Matrix
Параметр BVOP формата : 1
Параметр QPel формата : Нет
Параметр GMC формата : Без точки перехода
Параметр матрицы формата : Выборочная
Идентификатор кодека : XVID
Идентификатор кодека/Подсказка : XviD
Продолжительность : 1 ч. 27 м.
Битрейт : 1831 Кбит/сек
Ширина : 720 пикселей
Высота : 304 пикселя
Соотношение сторон : 2,35:1
Частота кадров : 23,976 (24000/1001) кадра/сек
Цветовое пространство : YUV
Субдискретизация насыщенности : 4:2:0
Битовая глубина : 8 бит
Тип развёртки : Прогрессивная
Метод сжатия : С потерями
Бит/(Пиксели*Кадры) : 0.349
Размер потока : 1,12 Гбайт (90%)
Заголовок : MediaBit
Библиотека кодирования : XviD 67
Аудио
Идентификатор : 1
Формат : AC-3
Формат/Информация : Audio Coding 3
Коммерческое название : Dolby Digital
Идентификатор кодека : 2000
Продолжительность : 1 ч. 27 м.
Вид битрейта : Постоянный
Битрейт : 192 Кбит/сек
Каналы : 2 канала
ChannelLayout : L R
Частота : 48,0 КГц
Частота кадров : 31,250 кадров/сек (1536 SPF)
Битовая глубина : 16 бит
Метод сжатия : С потерями
Размер потока : 120 Мбайт (9%)
Выравнивание : Соединение по промежуткам
Продолжительность промежутка : 32 мс. (0,77 видеокадр)
Заголовок : MVO [РЎinema Us] MediaBit
ServiceKind/String : Complete Main
-Скриншоты:


Смотреть онлайн

[trackeroc.org].31939.torrent  Магнет ссылка
Torrent: Registered   [ 2020-09-29 08:30 ]

Скачать торрент

14 KB

Status: checked
Completed: 45 times
Size: 1.25 GB
 

Similar torrent
Forum Topic Author Size
Сasual games, Тайм менеджмент Royal Roads 2: The Magic Box / Дороги королевства 2. Волшебная шкатулка (2020) (RUS/ENG) trackeroc.org 917 MB
Квесты, я ищу, Поиск предметов, Hidden Object Labyrinths of the World 6: The Devil's Tower / Лабиринты Мира 6: Башня Дьявола [RUS / ENG] (2017) HOPE 1.29 GB
Российские сериалы Охота на дьявола (2016) HDTVRip (серии 1-16 из 16) Captain 9.4 GB

_________________
[Profile] [PM]
Display posts from previous:    
Reply to topic

The time now is: Today 19:46

All times are GMT + 4 Hours



You cannot post new topics in this forum
You cannot reply to topics in this forum
You cannot edit your posts in this forum
You cannot delete your posts in this forum
You cannot vote in polls in this forum
You cannot attach files in this forum
You can download files in this forum