Тьма / Dark (2017-2020) WEB-DLRip (сезон 1-3, серии 1-26 из 26) NewStudio скачать торрент

Reply to topic

DL-List and Torrent activity [Update пиров]
Size:  14.62 GB   |    Registered:  10 days   |    Completed:  0 times
Seeders:  8  [  2 MB/s  ]   Show peers in full details
 
 
 
 
Author Message

Admin ®

Longevity: 6 years 5 months

Posts: 10105

Location: Скачать торрент


Post 07-Dec-2017 16:26

[Quote]

Тьма / Dark - Производство: Германия, США / NetFlix, Wiedemann & Berg Television
Жанр: триллер, фантастика, драма, криминал, детектив
Режиссер: Баран бо Одар
Актеры: Луис Хофманн, Каролина Эйхгорн, Лиза Викари, Майя Шёне, Штефан Кампвирт, Йордис Трибель, Андреас Пичман, Пол Люкс, Мориц Ян, Кристиан Хатчерсон
Описание:
История четырёх семей, живущих спокойной и размеренной жизнью в маленьком немецком городке. Видимая идиллия рушится, когда бесследно исчезают двое детей и воскресают тёмные тайны прошлого.

Релиз от: tahiy
Продолжительность: ~00:55:00 серия
Качество видео: WEB-DLRip
Перевод: Многоголосый профессиональный (NewStudio)
Субтитры: None
Видео: XviD, 704x352, ~ 1350 Кбит/с
Аудио: MP3, 2 ch, 128 Кбит/с

MediaInfo:

Код:
General
Complete name : D:\Downloads\Dark_ [tahiy]\01_ [sezon]\Dark.(S01E09)_ [tahiy].avi
Format : AVI
Format/Info : Audio Video Interleave
File size : 568 MiB
Duration : 55 min 18 s
Overall bit rate : 1 437 kb/s
Writing application : VirtualDubMod 1.5.10.3 | www.virtualdub-fr.org || (build 2550/release)
Writing library : VirtualDubMod build 2550/release
Video #0
ID : 0
Format : MPEG-4 Visual
Format profile : Advanced [email protected]
Format settings : BVOP1
Format settings, BVOP : 1
Format settings, QPel : No
Format settings, GMC : No warppoints
Format settings, Matrix : Default (MPEG)
Codec ID : XVID
Codec ID/Hint : XviD
Duration : 55 min 18 s
Bit rate : 1 300 kb/s
Width : 704 pixels
Height : 352 pixels
Display aspect ratio : 2.000
Frame rate : 24.000 FPS
Color space : YUV
Chroma subsampling : 4:2:0
Bit depth : 8 bits
Scan type : Progressive
Compression mode : Lossy
Bits/(Pixel*Frame) : 0.219
Stream size : 514 MiB (90%)
Writing library : XviD 73
Audio #1
ID : 1
Format : MPEG Audio
Format version : Version 1
Format profile : Layer 3
Format settings : Joint stereo / MS Stereo
Codec ID : 55
Codec ID/Hint : MP3
Duration : 55 min 2 s
Bit rate mode : Constant
Bit rate : 128 kb/s
Channel(s) : 2 channels
Sampling rate : 48.0 kHz
Frame rate : 41.667 FPS (1152 SPF)
Compression mode : Lossy
Stream size : 50.4 MiB (9%)
Alignment : Aligned on interleaves
Interleave, duration : 42  ms (1.00 video frame)
Interleave, preload duration : 504  ms
Writing library : LAME3.99r
Encoding settings : -m j -V 4 -q 2 -lowpass 17 -b 128
-Скриншоты:


Смотреть онлайн

[trackeroc.org].23213.torrent  Магнет ссылка
Torrent: Registered   [ 2020-09-16 01:26 ]

Скачать торрент

75 KB

Status: checked
Completed: 36 times
Size: 14.62 GB
 

Captain (08-июл-19), trackeroc.org (16-сен-20)

Similar torrent
Forum Topic Author Size
Квесты, я ищу, Поиск предметов, Hidden Object Dark Tales 18: Edgar Allan Poes The Devil in the Belfry / Тёмные истории 18. Эдгар Аллан По. Чёрт на колокольне (2020) (RUS) trackeroc.org 955 MB
Квесты, я ищу, Поиск предметов, Hidden Object [BETA] Dark City 5: Budapest [ENG / ENG] (2020) trackeroc.org 458 MB
Arcade, Аркады, Платформеры Dark Light v1.52 (2020) (ENG/JAP) (Early Access) Admin 992 MB
Зарубежные сериалы Тьма / Dark (2017-2020) WEBRip [H.264/720p-LQ] (сезон 1-3, серии 1-26 из 26) TVShows, Good People, IdeaFilm, Кубик в Кубе, NewStudio, LostFilm, HDrezka Captain 68.22 GB
[Profile] [PM]
Display posts from previous:    
Reply to topic

The time now is: Today 13:31

All times are GMT + 4 Hours



You cannot post new topics in this forum
You cannot reply to topics in this forum
You cannot edit your posts in this forum
You cannot delete your posts in this forum
You cannot vote in polls in this forum
You cannot attach files in this forum
You can download files in this forum