Вокруг света за 80 дней / Around the world in 80 days (1972) DVDRip (серии 1-16 из 16) скачать торрент

Reply to topic

DL-List and Torrent activity [Update пиров]
Size:  4.72 GB   |    Registered:  2 months 1 day   |    Completed:  0 times

Seeder not seen: Never

 
 
 
 
 
Author Message

Captain ®

Longevity: 6 years 5 months

Posts: 2553

Location: Earth


Post 23-Jul-2020 08:53

[Quote]

Вокруг света за 80 дней / Around the world in 80 days - Производство: Австралия / Air Programs International
Жанр: Рисованная анимация, Детский, Приключения
Режиссер: Лиф Грэм / Leif Gram
Описание:
Вряд ли австралийские аниматоры, работавшие сорок лет назад над сериалом по роману Жюля Верна, могли представить, что на другой стороне земного шара, в России, их труд - станет легендарным. Шестичасовая мультипликационная лента «Вокруг Света за 80 дней», рассказывающая о приключениях лощеного джентльмена Филлеаса Фогга и его слуги Паспарту, была приобретена советским телевидением, неоднократно демонстрировалась с огромным успехом и стала культовой. Несколько поколений поклонников мультика увлеченно «растаскивали» его на цитаты, а вопрос «У Вас есть план, мистер Фикс?» - можно услышать в разговорах и по сей день.

Возраст: 0+ (для любой зрительской аудитории)
Продолжительность: ~ серия по 00:21:40
Качество видео: DVDRip
Перевод: Дублированный (СССР), Дублированный (Студия Нота), Профессиональный многоголосый (Селена Интернешенл)
Язык озвучки Русский
Субтитры: Отсутствуют
Видео: Xvid, 704x528 (4:3), ~1261 Kbps
Аудио 1: AC3, 2 ch, 192 kbps - Русский Dub (СССР)
Аудио 2: AC3, 2 ch, 192 kbps - Русский Dub (Студия Нота)
Аудио 3: AC3, 2 ch, 192 kbps - Русский MVO (Селена Интернешенл)
Аудио 4: AC3, 2 ch, 192 kbps - Английский

MediaInfo:

General
Complete name : Вокруг света за 80 дней 1972\Vokrug_sveta_za_80_dnej_01 seriya.avi
Format : AVI
Format/Info : Audio Video Interleave
File size : 309 MiB
Duration : 21mn 44s
Overall bit rate : 1 987 Kbps
Writing application : VirtualDubModRus 1.5.10.2 (build 2542/release)
Writing library : VirtualDubMod build 2542/release
Video
ID : 0
Format : MPEG-4 Visual
Format profile : Advanced [email protected]
Format settings, BVOP : 1
Format settings, QPel : No
Format settings, GMC : No warppoints
Format settings, Matrix : Default (MPEG)
Codec ID : XVID
Codec ID/Hint : XviD
Duration : 21mn 44s
Bit rate : 1 195 Kbps
Width : 704 pixels
Height : 528 pixels
Display aspect ratio : 4:3
Frame rate : 25.000 fps
Color space : YUV
Chroma subsampling : 4:2:0
Bit depth : 8 bits
Scan type : Progressive
Compression mode : Lossy
Bits/(Pixel*Frame) : 0.129
Stream size : 186 MiB (60%)
Writing library : XviD 1.2.1 (UTC 2008-12-04)
Audio #1
ID : 1
Format : AC-3
Format/Info : Audio Coding 3
Mode extension : CM (complete main)
Codec ID : 2000
Duration : 21mn 40s
Bit rate mode : Constant
Bit rate : 192 Kbps
Channel(s) : 2 channels
Channel positions : Front: L R
Sampling rate : 48.0 KHz
Bit depth : 16 bits
Compression mode : Lossy
Stream size : 29.8 MiB (10%)
Alignment : Split accross interleaves
Interleave, duration : 40 ms (1.00 video frame)
Interleave, preload duration : 500 ms
Audio #2
ID : 2
Format : AC-3
Format/Info : Audio Coding 3
Mode extension : CM (complete main)
Codec ID : 2000
Duration : 21mn 44s
Bit rate mode : Constant
Bit rate : 192 Kbps
Channel(s) : 2 channels
Channel positions : Front: L R
Sampling rate : 48.0 KHz
Bit depth : 16 bits
Compression mode : Lossy
Stream size : 29.8 MiB (10%)
Alignment : Split accross interleaves
Interleave, duration : 40 ms (1.00 video frame)
Interleave, preload duration : 500 ms
Audio #3
ID : 3
Format : AC-3
Format/Info : Audio Coding 3
Mode extension : CM (complete main)
Codec ID : 2000
Duration : 21mn 40s
Bit rate mode : Constant
Bit rate : 192 Kbps
Channel(s) : 2 channels
Channel positions : Front: L R
Sampling rate : 48.0 KHz
Bit depth : 16 bits
Compression mode : Lossy
Stream size : 29.8 MiB (10%)
Alignment : Split accross interleaves
Interleave, duration : 40 ms (1.00 video frame)
Interleave, preload duration : 500 ms
Audio #4
ID : 4
Format : AC-3
Format/Info : Audio Coding 3
Mode extension : CM (complete main)
Codec ID : 2000
Duration : 21mn 44s
Bit rate mode : Constant
Bit rate : 192 Kbps
Channel(s) : 2 channels
Channel positions : Front: L R
Sampling rate : 48.0 KHz
Bit depth : 16 bits
Compression mode : Lossy
Stream size : 29.8 MiB (10%)
Alignment : Split accross interleaves
Interleave, duration : 40 ms (1.00 video frame)
Interleave, preload duration : 500 ms

Персонажи:

Оригинальная версия — Алистер Данкан, Росс Хиггинс, Макс Осбистон, Джанет Вальдо, Оуэн Вейнготт.
По заказу Гостелерадио СССР, 1978 г. — Леонид Каневский (Мистер Фикс), Александр Белявский (Лорд Мейз).
«Селена Интернешенл» по заказу ОРТ, 1999 г. — Валентин Смирнитский (Фогг), Андрей Казанцев (Паспарту), Ирина Гришина (Белинда Мэйз), Владимир Ферапонтов (Мистер Фикс).
«Студия Нота» по заказу ТНТ, 2005 г. — Дмитрий Филимонов (Мистер Фикс), Сергей Стиллавин (Паспарту), Геннадий Бачинский (Фогг), Маргарита Митрофанова (Белинда Мэйз).

Список серий:

01. Визит к королеве
02. Франция
03. Швейцария
04. Рим
05. Везувий
06. Адриатика
07. Греция
08. Пирамиды
09. Египет
10. Пальмира
11. Персия
12. Индия
13. Китай
14. Япония
15. Через Америку
16. Король Нью-Орлеана

Дополнительная информация:

— Рип делался с реставрированного издания «Синема Престиж» 2007 года. Качество реставрации оставляет желать лучшего - кислотные цвета, замыленность картинки и прочие огрехи.
— На сериях 7, 8, 9, 11 и 13 отсутствует «дубляж 1978 год», так как в СССР по телевизору транслировались только 11 серий.
— Не секрет, что некоторые люди утверждают, что якобы в мультсериале 18 серий, более того - что они видели «утерянные» всем миром первую и восемнадцатую серию в советской (!) озвучке. Ну что ж если видели, то пожалуйста ссылку, что б не быть голословным.
-Скриншоты:


Смотреть онлайн

[trackeroc.org].31218.torrent  Магнет ссылка
Torrent: Registered   [ 2020-07-23 08:53 ]

Скачать торрент

14 KB

Status: checked
Completed: 13 times
Size: 4.72 GB
 

Admin (23-июл-20), trackeroc.org (23-июл-20)

Similar torrent
Forum Topic Author Size
Сasual games, Тайм менеджмент Корона империи 2. Вокруг света / Crown of the Empire 2 Around the World (2020) (ENG/RUS) Admin 319 MB
Квесты, я ищу, Поиск предметов, Hidden Object League of Light 7: Growing Threat. / Лига Света 7: Растущая угроза. [RUS / ENG] (2019) Admin 841 MB
Ужасы ,мистика ,триллеры Голоса с того света / Morto Nao Fala (2018) WEB-DL [H.264/1080p] Captain 3.8 GB
Квесты, я ищу, Поиск предметов, Hidden Object League of Light 6: The Game / Лига Света 6: Что наша жизнь? Игра! [RUS / ENG] (2018) Admin 777 MB

_________________
[Profile] [PM]
Display posts from previous:    
Reply to topic

The time now is: Today 01:16

All times are GMT + 4 Hours



You cannot post new topics in this forum
You cannot reply to topics in this forum
You cannot edit your posts in this forum
You cannot delete your posts in this forum
You cannot vote in polls in this forum
You cannot attach files in this forum
You can download files in this forum