Воспитанные волками / Raised by Wolves (2020) WEB-DL [H.264/720p-LQ] (сезон 1, серии 1-7 из 10) LostFilm (обновляемая) скачать торрент

Reply to topic

DL-List and Torrent activity [Update пиров]
Size:  10.1 GB   |    Registered:  4 days   |    Completed:  0 times

Seeder not seen: Never

 
 
 
 
 
Author Message

Captain ®

Longevity: 6 years 5 months

Posts: 2552

Location: Earth


Post 05-Sep-2020 11:38

[Quote]

Воспитанные волками / Raised by Wolves
«Life begins again»
- Производство: США / Film Afrika Worldwide, Lit Entertainment Group, Scott Free Productions See more
Жанр: фантастика, фэнтези, триллер, драма
Режиссер: Люк Скотт, Ридли Скотт, Алекс Габасси
Актеры: Трэвис Фиммел, Аманда Коллин, Абубакар Салим, Винта МакГрат, Ниам Алгар, Феликс Джемисон, Этан Хаззард, Матиас Варела, Джордан Лоугрэн, Аасия Шах
Описание:
Андроиды Мама и Папа воспитывают человеческих детёнышей на колонизированной планете. Но вскоре проблемой подросшего поколения станут религиозные противоречия, разрешить которые придется именно роботам.

Дата мировой премьеры: 3 сентября 2020
Продолжительность: ~00:54:00 серия
Качество видео: WEB-DL
Перевод: Многоголосый профессиональный (LostFilm)
Язык озвучки: Русский
Субтитры: английские
Видео: AVC/H.264, 1280x720, 3386 kbps
Аудио 1: AC3, 6 ch, 384 kbps - MVO, русский
Аудио 2: AC3, 6 ch, 384 kbps - английский

Релиз:

Релиз: Grandfather61
Дорожка 1 получена наложением выделенных голосов от «LostFilm» на центр оригинального AC3.
Монтаж, работа со звуком: Grandfather61

MediaInfo:

Общее
Формат : Matroska
Версия формата : Version 4
Размер файла : 1,54 Гбайт
Продолжительность : 53 м. 7 с.
Режим общего битрейта : Переменный
Общий поток : 4156 Кбит/сек
Дата кодирования : UTC 2020-09-06 06:15:48
Программа кодирования : mkvmerge v49.0.0 ('Sick Of Losing Soulmates') 64-bit
Библиотека кодирования : libebml v1.4.0 + libmatroska v1.6.1
Видео
Идентификатор : 1
Формат : AVC
Формат/Информация : Advanced Video Codec
Профиль формата : [email protected]
Настройки формата : CABAC / 4 Ref Frames
Параметр CABAC формата : Да
Параметр RefFrames формата : 4 кадра
Идентификатор кодека : V_MPEG4/ISO/AVC
Продолжительность : 53 м. 7 с.
Вид битрейта : Переменный
Битрейт : 3386 Кбит/сек
Максимальный битрейт : 5100 Кбит/сек
Ширина : 1280 пикселей
Высота : 720 пикселей
Соотношение сторон : 16:9
Режим частоты кадров : Постоянный
Частота кадров : 23,976 (24000/1001) кадра/сек
Цветовое пространство : YUV
Субдискретизация насыщенности : 4:2:0
Битовая глубина : 8 бит
Тип развёртки : Прогрессивная
Бит/(Пиксели*Кадры) : 0.153
Размер потока : 1,26 Гбайт (81%)
Заголовок : Raised by Wolves 1x01 (2020) - Release for Grandfather61
Язык : English
Default : Да
Forced : Нет
Цветовой диапазон : Limited
Основные цвета : BT.709
Характеристики трансфера : BT.709
Коэффициенты матрицы : BT.709
Аудио #1
Идентификатор : 2
Формат : AC-3
Формат/Информация : Audio Coding 3
Коммерческое название : Dolby Digital
Идентификатор кодека : A_AC3
Продолжительность : 53 м. 7 с.
Вид битрейта : Постоянный
Битрейт : 384 Кбит/сек
Каналы : 6 каналов
ChannelLayout : L R C LFE Ls Rs
Частота : 48,0 КГц
Частота кадров : 31,250 кадров/сек (1536 SPF)
Метод сжатия : С потерями
Размер потока : 146 Мбайт (9%)
Заголовок : LostFilm
Язык : Russian
ServiceKind/String : Complete Main
Default : Да
Forced : Нет
Аудио #2
Идентификатор : 3
Формат : AC-3
Формат/Информация : Audio Coding 3
Коммерческое название : Dolby Digital
Идентификатор кодека : A_AC3
Продолжительность : 53 м. 7 с.
Вид битрейта : Постоянный
Битрейт : 384 Кбит/сек
Каналы : 6 каналов
ChannelLayout : L R C LFE Ls Rs
Частота : 48,0 КГц
Частота кадров : 31,250 кадров/сек (1536 SPF)
Метод сжатия : С потерями
Размер потока : 146 Мбайт (9%)
Язык : English
ServiceKind/String : Complete Main
Default : Нет
Forced : Нет
Текст
Идентификатор : 4
Формат : UTF-8
Идентификатор кодека : S_TEXT/UTF8
Идентификатор кодека/Информация : UTF-8 Plain Text
Продолжительность : 53 м. 2 с.
Битрейт : 39 бит/сек
ElementCount : 726
Размер потока : 15,5 Кбайт (0%)
Заголовок : SDH
Язык : English
Default : Нет
Forced : Нет
-Скриншоты:


Смотреть онлайн

[trackeroc.org].31735.torrent  Магнет ссылка
Torrent: Registered   [ 2020-09-21 16:35 ]

Скачать торрент

27 KB

Status: * not checked
Completed: 92 times
Size: 10.1 GB
 

trackeroc.org (05-сен-20)


_________________
[Profile] [PM]
Display posts from previous:    
Reply to topic

The time now is: Today 11:32

All times are GMT + 4 Hours



You cannot post new topics in this forum
You cannot reply to topics in this forum
You cannot edit your posts in this forum
You cannot delete your posts in this forum
You cannot vote in polls in this forum
You cannot attach files in this forum
You can download files in this forum