Замок и ключ / Ключи Локков / Locke & Key (2020) WEB-DLRip (сезон 1, серии 1-10 из 10) Пифагор скачать торрент

Reply to topic

DL-List and Torrent activity [Update пиров]
Size:  8.49 GB   |    Registered:  8 months 13 days   |    Completed:  0 times
Seeders:  26  [  371 KB/s  ]   Leechers:  1  [  0 KB/s  ]   Show peers in full details
 
 
 
 
Author Message

Captain ®

Longevity: 6 years 6 months

Posts: 2560

Location: Earth


Post 09-Feb-2020 09:20

[Quote]

Замок и ключ / Ключи Локков / Locke & Key «Adaptation from graphic novel about kids killing people»- Производство: США / Circle of Confusion, IDW Entertainment, Take 5 Productions
Жанр: ужасы, фэнтези, триллер, драма
Режиссер: Майкл Моррис, Винченцо Натали, Тим Соутэм
Актеры: Кевин Алвес, Томас Митчелл Барнет, Коби Бёрд, Ашанти Бромфилд, Лайсла Де Оливейра, Гриффин Глюк, Эрик Грэйз, Коннор Джессап, Эмилия Джонс и др.
Описание:
Овдовевшая женщина с тремя детьми переезжает в фамильное имение Дом Ключей в городке Лавкрафт. Семья надеется начать жизнь заново, оставив в прошлом недавние трагические происшествия — отец семейства был жестоко убит. Но особняк скрывает в своих стенах некие ключи и чудовище, которое за ними охотится...

Дата мировой премьеры: 7 февраля 2020
Продолжительность: ~00:55:00 серия
Качество видео: WEB-DLRip
Перевод: Дублированный (Пифагор)
Субтитры: Русские (форсированные, полные), английские (отдельными файлами)
Видео: Xvid, 704x352, ~1790 Kbps
Аудио #1: AC3, 6 ch, 384 Kbps - русский
Аудио #2: AC3, 6 ch, 384 Kbps - английский

MediaInfo:

Общее
Полное имя : Locke.and.Key.s01e01.avi
Формат : AVI
Формат/Информация : Audio Video Interleave
Размер файла : 1,02 Гбайт
Продолжительность : 56 м. 53 с.
Общий поток : 2573 Кбит/сек
Программа кодирования : VirtualDubMod 1.5.10.2 (build 2540/release)
Библиотека кодирования : VirtualDubMod build 2540/release
Видео
Идентификатор : 0
Формат : MPEG-4 Visual
Профиль формата : Advanced [email protected]
Настройки формата : BVOP1 / Custom Matrix
Параметр BVOP формата : 1
Параметр QPel формата : Нет
Параметр GMC формата : Без точки перехода
Параметр матрицы формата : Выборочная
Идентификатор кодека : XVID
Идентификатор кодека/Подсказка : XviD
Продолжительность : 56 м. 53 с.
Битрейт : 1791 Кбит/сек
Ширина : 704 пикселя
Высота : 352 пикселя
Соотношение сторон : 2,000
Частота кадров : 23,976 (24000/1001) кадра/сек
Цветовое пространство : YUV
Субдискретизация насыщенности : 4:2:0
Битовая глубина : 8 бит
Тип развёртки : Прогрессивная
Метод сжатия : С потерями
Бит/(Пиксели*Кадры) : 0.301
Размер потока : 729 Мбайт (70%)
Библиотека кодирования : XviD 73
Аудио #1
Идентификатор : 1
Формат : AC-3
Формат/Информация : Audio Coding 3
Коммерческое название : Dolby Digital
Идентификатор кодека : 2000
Продолжительность : 56 м. 53 с.
Вид битрейта : Постоянный
Битрейт : 384 Кбит/сек
Каналы : 6 каналов
ChannelLayout : L R C LFE Ls Rs
Частота : 48,0 КГц
Частота кадров : 31,250 кадров/сек (1536 SPF)
Метод сжатия : С потерями
Размер потока : 156 Мбайт (15%)
Выравнивание : Разделение по промежуткам
Продолжительность промежутка : 42 мс. (1,00 видеокадр)
Время предзагрузки промежутка : 500 мс.
ServiceKind/String : Complete Main
Аудио #2
Идентификатор : 2
Формат : AC-3
Формат/Информация : Audio Coding 3
Коммерческое название : Dolby Digital
Идентификатор кодека : 2000
Продолжительность : 56 м. 53 с.
Вид битрейта : Постоянный
Битрейт : 384 Кбит/сек
Каналы : 6 каналов
ChannelLayout : L R C LFE Ls Rs
Частота : 48,0 КГц
Частота кадров : 31,250 кадров/сек (1536 SPF)
Метод сжатия : С потерями
Размер потока : 156 Мбайт (15%)
Выравнивание : Разделение по промежуткам
Продолжительность промежутка : 42 мс. (1,00 видеокадр)
Время предзагрузки промежутка : 500 мс.
ServiceKind/String : Complete Main
-Скриншоты:


Смотреть онлайн

[trackeroc.org].29918.torrent  Магнет ссылка
Torrent: Registered   [ 2020-02-09 09:20 ]

Скачать торрент

46 KB

Status: checked
Completed: 111 times
Size: 8.49 GB
 

Admin (09-фев-20)

Similar torrent
Forum Topic Author Size
Квесты, я ищу, Поиск предметов, Hidden Object Bluebeard's Castle 2: Son of the Heartless / Замок Синей Бороды 2: Сын Бессердечного [RUS / ENG] (2014) Admin 739 MB
Ужасы ,мистика ,триллеры Астрал 4: Последний ключ / Insidious: The Last Key (2018) WEB-DLRip Admin 1.45 GB
Квесты, я ищу, Поиск предметов, Hidden Object Forgotten Places: Regained Castle / Покинутые места: Обретенный замок [MULTI / ENG/RUS] (2016) HOPE 431 MB
Квесты, я ищу, Поиск предметов, Hidden Object Mystery Case Files 12: Key To Ravenhearst Collector's Edition/За семью печатями 12. Ключ к Равенхерсту(2015) (Nevosoft) (RUS) [P] HOPE 1004 MB

_________________
[Profile] [PM]
Display posts from previous:    
Reply to topic

The time now is: Today 10:16

All times are GMT + 4 Hours



You cannot post new topics in this forum
You cannot reply to topics in this forum
You cannot edit your posts in this forum
You cannot delete your posts in this forum
You cannot vote in polls in this forum
You cannot attach files in this forum
You can download files in this forum